Поиск Результатов поиска: 500

  • Фильмы 2006-2010 > Смертельная ловушка / Deadfall Trail (Роз / Roze) [2009, США, триллер, ужасы, DVB] MVO (Студия Акцент) + Original (Eng)
  • 12-Сен-2017 08:51

    Ranku

    Смертельная ловушка
    Deadfall Trail- Страна: США
    Жанр: триллер, ужасы
    Год выпуска: 2009
    Продолжительность: 01:33:24
    Перевод: Профессиональный (многоголосый закадровый) Студия "Акцент" по заказу Kino Polska
    Субтитры: нет
    Оригинальная аудиодорожка: английский
    Режиссер: Роз / Roze
    В ролях: Слэйд Холл / Slade Hall (John), Шэйн Дин / Shane Dean (Julian), Кэвин Грэй / Cavin Gray (Paul), Катрина Райан / Katrina M. Ryan (Mother Earth)
    Описание: Джон, Джулиан и Пол выезжают на трехнедельную поездку в Национальный парк Аризоны. Задача во что бы то ни стало выжить при любых условиях с бутылкой воды и ножом. Но роковой поворот событий изменяет всё, и мужчины вынуждены противостоять друг другу.
    Доп. информация: Intelsat 15 (85.0°E) Filmbox DVB-S

    Качество видео: DVB
    Формат видео: MKV
    Видео: MPEG Video 2, [email protected] (16:9), 25 fps, ~2205 kbps avg, 0.213 bit/pixel
    Аудио 1: MPEG Audio 2, 2 ch, 48 kHz, 128 kbps - русский
    Аудио 2: MPEG Audio 2, 2 ch, 48 kHz, 128 kbps - английский

    MediaInfo

    General
    Unique ID : 210912191896992629119672896982315900404 (0x9EAC35E9F3C0153F9688BF6DEFFB1DF4)
    Complete name : [apreder]Deadfall_Trail(2009)DVB.mkv
    Format : Matroska
    Format version : Version 2
    File size : 1.61 GiB
    Duration : 1 h 33 min
    Overall bit rate mode : Variable
    Overall bit rate : 2 467 kb/s
    Movie name : Deadfall Trail
    Released date : 2009-00-00
    Encoded date : UTC 2017-09-02 09:44:36
    Writing application : mkvmerge v15.0.0 ('Duel with the Devil') 64-bit
    Writing library : libebml v1.3.5 + libmatroska v1.4.5
    Cover : Yes
    Attachments : cover.jpg / small_cover.jpg
    ACTOR : Slade Hall, Shane Dean, Cavin Gray
    DIRECTOR : Roze
    GENRE : Horror, Thriller
    IMDB : tt1285217
    KEYWORDS : rutracker.org
    LAW_RATING : 16+
    Video
    ID : 1
    Format : MPEG Video
    Format version : Version 2
    Format profile : [email protected]
    Format settings, BVOP : Yes
    Format settings, Matrix : Custom
    Format settings, GOP : M=4, N=12
    Format settings, picture structure : Frame
    Codec ID : V_MPEG2
    Codec ID/Info : MPEG 1 or 2 Video
    Duration : 1 h 33 min
    Bit rate mode : Variable
    Bit rate : 2 205 kb/s
    Maximum bit rate : 10 000 kb/s
    Width : 720 pixels
    Height : 576 pixels
    Display aspect ratio : 16:9
    Frame rate mode : Constant
    Frame rate : 25.000 FPS
    Standard : PAL
    Color space : YUV
    Chroma subsampling : 4:2:0
    Bit depth : 8 bits
    Scan type : Interlaced
    Scan order : Top Field First
    Compression mode : Lossy
    Bits/(Pixel*Frame) : 0.213
    Time code of first frame : 00:00:00:00
    Time code source : Group of pictures header
    GOP, Open/Closed : Open
    Stream size : 1.44 GiB (89%)
    Default : Yes
    Forced : No
    Audio #1
    ID : 2
    Format : MPEG Audio
    Format version : Version 1
    Format profile : Layer 2
    Codec ID : A_MPEG/L2
    Codec ID/Hint : MP2
    Duration : 1 h 33 min
    Bit rate mode : Constant
    Bit rate : 128 kb/s
    Channel(s) : 2 channels
    Sampling rate : 48.0 kHz
    Frame rate : 41.667 FPS (1152 SPF)
    Compression mode : Lossy
    Stream size : 85.5 MiB (5%)
    Language : Russian
    Default : Yes
    Forced : No
    Audio #2
    ID : 3
    Format : MPEG Audio
    Format version : Version 1
    Format profile : Layer 2
    Codec ID : A_MPEG/L2
    Codec ID/Hint : MP2
    Duration : 1 h 33 min
    Bit rate mode : Constant
    Bit rate : 128 kb/s
    Channel(s) : 2 channels
    Sampling rate : 48.0 kHz
    Frame rate : 41.667 FPS (1152 SPF)
    Compression mode : Lossy
    Stream size : 85.5 MiB (5%)
    Language : English
    Default : No
    Forced : No

    Скриншот c названием фильма

    Скриншоты


    Резервные скриншоты


    - [3'858]
  • Фильмы 2006-2010 > Суррогаты / Surrogates (Джонатан Мостоу / Jonathan Mostow) [2009, США, фантастика, боевик, триллер, HDTVRip-AVC] [Open Matte] DUB + AVO (Гаврилов) + Sub Rus Eng + Original Eng
  • 12-Сен-2017 08:51

    Ranku

    Суррогаты / Surrogates / Open Matte
    Страна: США
    Жанр: фантастика, боевик, триллер
    Год выпуска: 2009
    Продолжительность: 01:28:36
    Перевод: Профессиональный (дублированный)
    Перевод 2: Авторский (одноголосый закадровый) А.Гаврилов
    Субтитры: русские, английские
    Оригинальная аудиодорожка: английский
    Режиссер: Джонатан Мостоу / Jonathan Mostow
    В ролях: Брюс Уиллис, Рада Митчел, Розамунд Пайк, Борис Коджо, Джеймс Джинти, Джеймс Кромуэлл, Винг Рэймс, Джек Ноузуорти, Девин Рэтрей, Майкл Кудиц.
    Описание: Действие разворачивается в будущем, в 2057 году, — когда люди практически перестанут общаться между собой и полностью возложат эту функцию на плечи роботов-заменителей. Они сильнее, моложе, привлекательнее своих обладателей и даже могут быть другого пола. Но находится террорист, начинающий уничтожать идеальных андроидов. Полицейскому Тому Гриру предстоит узнать, какие причины движут злоумышленником, лишающим жизни людей и их марионеток, технически и физически совершенных.
    Доп. информация: Различия BD и HDTV - разное наполнение кадра - 16:9 (1.78:1) -> http://screenshotcomparison.com/comparison/115575
    Фильмы в Fullscreen (4:3) и Open Matte (16:9) форматах
    Сэмпл: http://multi-up.com/1166925
    Качество видео: HDTVRip-AVC
    Формат видео: MKV
    Видео: MPEG-4 AVC/H.264 / 2000 kbps / 1024x576 / 23.976 fps
    Аудио: DUB (Rus) / AC3 / 6 ch / 384 kbps / 48 kHz
    Аудио 2: AVO Гаврилов (Rus) / AC3 / 6 ch / 384 kbps / 48 kHz - отдельно
    Аудио 3: Original (Eng) / AC3 / 6 ch / 384 kbps / 48 kHz - отдельно
    Формат субтитров: softsub (SRT)
    Доп. информация о субтитрах: русские (forced, full), английские (full)
    #Сохранены оригинальные чаптеры как на Blu-ray

    Log

    x264 [info]: frame I:1354 Avg QP:16.72 size: 74276
    x264 [info]: frame P:44588 Avg QP:20.42 size: 20243
    x264 [info]: frame B:112084 Avg QP:22.67 size: 6449

    MediaInfo

    General
    Unique ID : 180695392831478449970009888882935453975 (0x87F0AAB2886C4F60A76A6626681FD917)
    Complete name : J:\Torrents\Готовые релизы\Суррогаты (2009) HDTVRip-AVC [Open Matte]\Суррогаты (2009) HDTVRip-AVC [Open Matte].mkv
    Format : Matroska
    Format version : Version 2
    File size : 1.48 GiB
    Duration : 1 h 28 min
    Overall bit rate : 2 391 kb/s
    Movie name : Суррогаты / Surrogates (2009) [Open Matte]
    Encoded date : UTC 2017-08-22 20:37:41
    Writing application : mkvmerge v5.5.0 ('Healer') built on Apr 24 2012 23:47:03
    Writing library : libebml v1.2.3 + libmatroska v1.3.0
    Cover : Yes
    Attachments : cover.png
    Video
    ID : 1
    Format : AVC
    Format/Info : Advanced Video Codec
    Format profile : [email protected]
    Format settings, CABAC : Yes
    Format settings, ReFrames : 8 frames
    Codec ID : V_MPEG4/ISO/AVC
    Duration : 1 h 28 min
    Bit rate : 2 000 kb/s
    Width : 1 024 pixels
    Height : 576 pixels
    Display aspect ratio : 16:9
    Frame rate mode : Constant
    Frame rate : 23.976 (24000/1001) FPS
    Color space : YUV
    Chroma subsampling : 4:2:0
    Bit depth : 8 bits
    Scan type : Progressive
    Bits/(Pixel*Frame) : 0.141
    Stream size : 1.21 GiB (82%)
    Title : HDTVRip (AVC) / MPEG-4 AVC/H.264 / 2000 kbps / 1024x576 / 23.976 fps
    Writing library : x264 core 146 r2538 121396c
    Encoding settings : cabac=1 / ref=8 / deblock=1:0:0 / analyse=0x3:0x113 / me=umh / subme=10 / psy=1 / psy_rd=1.00:0.00 / mixed_ref=1 / me_range=32 / chroma_me=1 / trellis=2 / 8x8dct=1 / cqm=0 / deadzone=21,11 / fast_pskip=0 / chroma_qp_offset=-2 / threads=6 / lookahead_threads=1 / sliced_threads=0 / nr=0 / decimate=1 / interlaced=0 / bluray_compat=0 / constrained_intra=0 / bframes=9 / b_pyramid=2 / b_adapt=2 / b_bias=0 / direct=3 / weightb=1 / open_gop=0 / weightp=2 / keyint=250 / keyint_min=23 / scenecut=40 / intra_refresh=0 / rc_lookahead=50 / rc=2pass / mbtree=1 / bitrate=2000 / ratetol=1.0 / qcomp=0.60 / qpmin=0 / qpmax=69 / qpstep=4 / cplxblur=20.0 / qblur=0.5 / vbv_maxrate=14000 / vbv_bufsize=14000 / nal_hrd=none / filler=0 / ip_ratio=1.40 / aq=1:1.00
    Language : English
    Default : Yes
    Forced : Yes
    Audio
    ID : 2
    Format : AC-3
    Format/Info : Audio Coding 3
    Mode extension : CM (complete main)
    Format settings, Endianness : Big
    Codec ID : A_AC3
    Duration : 1 h 28 min
    Bit rate mode : Constant
    Bit rate : 384 kb/s
    Channel(s) : 6 channels
    Channel positions : Front: L C R, Side: L R, LFE
    Sampling rate : 48.0 kHz
    Frame rate : 31.250 FPS (1536 spf)
    Bit depth : 16 bits
    Compression mode : Lossy
    Stream size : 243 MiB (16%)
    Title : DUB (Rus) / AC3 / 6 ch / 384 kbps / 48 kHz
    Language : Russian
    Default : Yes
    Forced : Yes
    Text #1
    ID : 3
    Format : UTF-8
    Codec ID : S_TEXT/UTF8
    Codec ID/Info : UTF-8 Plain Text
    Title : Forced (Rus) / S_TEXT/UTF8
    Language : Russian
    Default : Yes
    Forced : Yes
    Text #2
    ID : 4
    Format : UTF-8
    Codec ID : S_TEXT/UTF8
    Codec ID/Info : UTF-8 Plain Text
    Title : Full (Rus) / S_TEXT/UTF8
    Language : Russian
    Default : No
    Forced : No
    Text #3
    ID : 5
    Format : UTF-8
    Codec ID : S_TEXT/UTF8
    Codec ID/Info : UTF-8 Plain Text
    Title : Full (Eng) / S_TEXT/UTF8
    Language : English
    Default : No
    Forced : No
    Menu
    00:00:00.000 : :Chapter 01
    00:03:45.266 : :Chapter 02
    00:08:34.055 : :Chapter 03
    00:14:45.885 : :Chapter 04
    00:20:36.777 : :Chapter 05
    00:24:47.903 : :Chapter 06
    00:28:59.404 : :Chapter 07
    00:35:30.837 : :Chapter 08
    00:40:10.449 : :Chapter 09
    00:46:11.435 : :Chapter 10
    00:49:48.026 : :Chapter 11
    00:54:08.286 : :Chapter 12
    01:00:37.759 : :Chapter 13
    01:08:27.895 : :Chapter 14
    01:11:43.007 : :Chapter 15
    01:19:43.487 : :Chapter 16
    01:23:59.826 : :Chapter 17
    01:28:36.102 : :Chapter 18

    Скриншот c названием фильма

    Скриншоты

    • Исходник предоставлен пользователем GambitX
  • Фильмы 2006-2010 > Гвидо-суперзвезда: Восхождение Гвидо / Guido Superstar: The Rise of Guido (Сильвио Поллио / Silvio Pollio) [2010, Канада, авантюрная комедия, DVB] DVO (Студия Акцент) + Original (Eng)
  • 12-Сен-2017 08:51

    Ranku

    Гвидо-суперзвезда: Восхождение Гвидо
    Guido Superstar: The Rise of Guido- Страна: Канада
    Жанр: авантюрная комедия
    Год выпуска: 2010
    Продолжительность: 01:22:55
    Перевод: Профессиональный (двухголосый закадровый) Студия "Акцент" по заказу Kino Polska
    Субтитры: нет
    Оригинальная аудиодорожка: английский
    Режиссер: Сильвио Поллио / Silvio Pollio
    В ролях: Сильвио Поллио / Silvio Pollio (Guido), Джон Кассини / John Cassini (Mr. Blanco), Николас Ли / Nicholas Lea (Mr. Other Guy), Терри Чен / Terry Chen (Andrew Cho)
    Описание: В этой забавной комедии-боевике итальянский эммигрант попадает в мир "королей наркобизнеса", дорогих автомобилей и секретных агентов. Гвидо теряет работу в Disco Valet Company за чрезмерный героизм и должен играть роль сицилийского гангстера для ФБР, чтобы проникнуть в структуры сильной азиатской мафиозной группировки. Все идет наперекосяк и оборачивается к худшему. Гвидо должен возместить убытки до того, как его раскроют и убьют или, что еще хуже, вышлют из страны.
    Доп. информация: Intelsat 15 (85.0°E) Filmbox DVB-S
    Участник Vancouver International Film Festival 2010.

    Качество видео: DVB
    Формат видео: MKV
    Видео: MPEG Video 2, [email protected] (16:9), 25 fps, ~2523 kbps avg, 0.243 bit/pixel
    Аудио 1: MPEG Audio 2, 2 ch, 48 kHz, 128 kbps - русский
    Аудио 2: MPEG Audio 2, 2 ch, 48 kHz, 128 kbps - английский

    MediaInfo

    General
    Unique ID : 237308501321791790720551176299099074159 (0xB287F472B5A8B60A84EBA9B2E66A2E6F)
    Complete name : [apreder]Guido_Superstar_The_Rise_of_Guido(2010)DVB.mkv
    Format : Matroska
    Format version : Version 2
    File size : 1.61 GiB
    Duration : 1 h 22 min
    Overall bit rate mode : Variable
    Overall bit rate : 2 785 kb/s
    Movie name : Guido Superstar: The Rise of Guido
    Released date : 2010-10-07
    Encoded date : UTC 2017-09-01 12:10:41
    Writing application : mkvmerge v15.0.0 ('Duel with the Devil') 64-bit
    Writing library : libebml v1.3.5 + libmatroska v1.4.5
    Cover : Yes
    Attachments : cover.jpg / small_cover.jpg
    ACTOR : Silvio Pollio, John Cassini, Nicholas Lea
    DIRECTOR : Silvio Pollio
    GENRE : Comedy
    IMDB : tt1584701
    KEYWORDS : rutracker.org
    LAW_RATING : 16+
    Video
    ID : 1
    Format : MPEG Video
    Format version : Version 2
    Format profile : [email protected]
    Format settings, BVOP : Yes
    Format settings, Matrix : Custom
    Format settings, GOP : M=4, N=12
    Format settings, picture structure : Frame
    Codec ID : V_MPEG2
    Codec ID/Info : MPEG 1 or 2 Video
    Duration : 1 h 22 min
    Bit rate mode : Variable
    Bit rate : 2 523 kb/s
    Maximum bit rate : 10 000 kb/s
    Width : 720 pixels
    Height : 576 pixels
    Display aspect ratio : 16:9
    Frame rate mode : Constant
    Frame rate : 25.000 FPS
    Standard : PAL
    Color space : YUV
    Chroma subsampling : 4:2:0
    Bit depth : 8 bits
    Scan type : Interlaced
    Scan order : Top Field First
    Compression mode : Lossy
    Bits/(Pixel*Frame) : 0.243
    Time code of first frame : 03:14:34:19
    Time code source : Group of pictures header
    GOP, Open/Closed : Open
    Stream size : 1.46 GiB (91%)
    Default : Yes
    Forced : No
    Audio #1
    ID : 2
    Format : MPEG Audio
    Format version : Version 1
    Format profile : Layer 2
    Codec ID : A_MPEG/L2
    Codec ID/Hint : MP2
    Duration : 1 h 22 min
    Bit rate mode : Constant
    Bit rate : 128 kb/s
    Channel(s) : 2 channels
    Sampling rate : 48.0 kHz
    Frame rate : 41.667 FPS (1152 SPF)
    Compression mode : Lossy
    Stream size : 75.9 MiB (5%)
    Language : Russian
    Default : Yes
    Forced : No
    Audio #2
    ID : 3
    Format : MPEG Audio
    Format version : Version 1
    Format profile : Layer 2
    Codec ID : A_MPEG/L2
    Codec ID/Hint : MP2
    Duration : 1 h 22 min
    Bit rate mode : Constant
    Bit rate : 128 kb/s
    Channel(s) : 2 channels
    Sampling rate : 48.0 kHz
    Frame rate : 41.667 FPS (1152 SPF)
    Compression mode : Lossy
    Stream size : 75.9 MiB (5%)
    Language : English
    Default : No
    Forced : No

    Скриншот c названием фильма

    Скриншоты


    Резервные скриншоты


    - [3'852]
  • Фильмы 2006-2010 > Девушка моих кошмаров / The Heartbreak Kid (Бобби Фаррелли / Bobby Farrelly; Питер Фаррелли / Peter Farrelly) [2007, США, мелодрама, комедия, SATRip] [Open Matte] DUB
  • 12-Сен-2017 08:50

    Ranku

    Девушка моих кошмаров : The Heartbreak Kid Страна: США
    Жанр: мелодрама, комедия
    Продолжительность: 01:41:03
    Год выпуска: 2007
    Перевод:
    - Профессиональный (дублированный) - Пифагор
    Субтитры: отсутствуют-Режиссёры: Бобби Фаррелли : Bobby Farrelly, Питер Фаррелли : Peter Farrelly
    В ролях: Бен Стиллер, Мишель Монахэн, Джерри Стиллер, Малин Акерман, Карлос Менсиа, Стефани Кортни, Али Хиллис, Николь Паон, Джоэль Брайант, Э.Э. Белл, Лоурен Боулз, Натали Картер, Лесли Истербрук, Дэвид Ходжес, Рой Дженкинс, Kayla Kleevage, Майкл Кромка, Николас Кромка, Миранда Мэй.-Описание: История о парне, терпевшем неудачу за неудачей на любовном фронте и в результате женившемся на идеальной, вроде бы, девушке, которая только во время медового месяца открыла свое истинное лицо — психопатки, экстремалки и капризной стервы. Он в шоке, но тут на горизонте появляется настоящая Девушка Его Мечты — умница-красавица, веселушка и вообще — само совершенство.-
    Семпл: http://sendfile.su/1359578-Доп. информация: Фильм записан с казахстанского телеканала НТК.
    -Качество: SATRip
    Формат: AVI
    Видео: XviD 67, 720x400 (16:9), 25 fps, ~1880 kbps, 0.261 bit/pixel
    Аудио: [RUS] 48 kHz, AC3 Dolby Digital, 1 ch, 192 kbps

    Mediainfo

    Общее
    Полное имя : F:\The.Heartbreak.Kid.2007.SATRip.avi
    Формат : AVI
    Формат/Информация : Audio Video Interleave
    Размер файла : 1,47 Гбайт
    Продолжительность : 1 ч. 41 м.
    Общий поток : 2082 Кбит/сек
    Программа кодирования : VirtualDubMod 1.5.10.2 (build 2540/release)
    Библиотека кодирования : VirtualDubMod build 2540/release
    Видео
    Идентификатор : 0
    Формат : MPEG-4 Visual
    Профиль формата : Advanced [email protected]
    Параметр BVOP формата : 2
    Параметр QPel формата : Нет
    Параметр GMC формата : Без точки перехода
    Параметр матрицы формата : Default (H.263)
    Идентификатор кодека : XVID
    Идентификатор кодека/Подсказка : XviD
    Продолжительность : 1 ч. 41 м.
    Битрейт : 1880 Кбит/сек
    Ширина : 720 пикселей
    Высота : 400 пикселей
    Соотношение сторон : 16:9
    Частота кадров : 25,000 кадров/сек
    Цветовое пространство : YUV
    Субдискретизация насыщенности : 4:2:0
    Битовая глубина : 8 бит
    Тип развёртки : Прогрессивная
    Метод сжатия : С потерями
    Бит/(Пиксели*Кадры) : 0.261
    Размер потока : 1,33 Гбайт (90%)
    Библиотека кодирования : XviD 67
    Аудио
    Идентификатор : 1
    Формат : AC-3
    Формат/Информация : Audio Coding 3
    Параметр Endianness формата : Big
    Идентификатор кодека : 2000
    Продолжительность : 1 ч. 41 м.
    Вид битрейта : Постоянный
    Битрейт : 192 Кбит/сек
    Каналы : 1 канал
    Расположение каналов : Front: C
    Частота : 48,0 КГц
    Частота кадров : 31,250 кадров/сек (1536 spf)
    Битовая глубина : 16 бит
    Метод сжатия : С потерями
    Размер потока : 139 Мбайт (9%)
    Выравнивание : Разделение по промежуткам
    Продолжительность промежутка : 40 мс. (1,00 видеокадр)
    Время предзагрузки промежутка : 500 мс.
    ServiceKind/String : Complete Main

    SATRip vs. BDRip

    SATRip------vs.------BDRip

    Скриншот с названием фильма

    Скриншоты

  • Фильмы 2006-2010 > Девичьи обещанья / Девичьи обеты / Sluby panienskie (Филип Байон / Filip Bajon) [2010, Польша, мелодрама, комедия, DVDRip-AVC] VO (acolith)
  • 12-Сен-2017 08:50

    Ranku

    Девичьи обещанья / Девичьи обеты / Sluby panienskie- Страна: Польша
    Жанр: мелодрама, комедия
    Год выпуска: 2010
    Продолжительность: 01:36:10
    Перевод: Одноголосый закадровый acolith
    Субтитры: нет
    Оригинальная аудиодорожка: польский-Режиссер: Филип Байон / Filip Bajon-В ролях:
    Анна Цесляк, Мацей Штур, Марта Жмуда Тшебятовска, Борис Шыц, Робэрт Вецкевич, Эдита Ольшувка, Анджей Грабовски, Виктор Зборовский, Ежи Рогальский, Михал Пеля и другие.-Описание:
    Альбин и Густав — друзья и разгульные парни, которые пытаются любой ценой соблазнить девушек Анелу и Клару, решительно настроенных против всех, по их мнению, всегда неискренних и коварных мужчин. Однако на этот раз поиски слабых точек женщин, чтобы обрести желаемое — встречают жёсткий отпор и терпят неудачи.-Дополнительная информация: стихотворный перевод-Сэмпл: http://sendfile.su/1359041-Качество видео: DVDRip-AVC
    Формат видео: MKV
    Видео: [email protected] (16:9), 25fps, MPEG4 Video (H264), h264 high L4.1 ~2149kb/s
    Аудио 1: 48 kHz, AC3 Dolby Digital 3/2 (L,C,R,l,r) + LFE ch, ~448 kbps русский одноголосый
    Аудио 2: 48 kHz, AC3 Dolby Digital 3/2 (L,C,R,l,r) + LFE ch, ~448 kbps польский

    MediaInfo

    General
    Unique ID
    Complete name
    Format : Matroska
    Format version : Version 2
    File size : 2.05 GiB
    Duration : 1 h 36 min
    Overall bit rate : 3 046 kb/s
    Encoded date : UTC 2017-09-02 07:26:06
    Writing application : mkvmerge v5.7.0 ('The Whirlwind') built on Jul 29 2012 15:12:35
    Writing library : libebml v1.2.3 + libmatroska v1.3.0
    Video
    ID : 1
    Format : AVC
    Format/Info : Advanced Video Codec
    Format profile : [email protected]
    Format settings, CABAC : Yes
    Format settings, RefFrames : 8 frames
    Muxing mode : Header stripping
    Codec ID : V_MPEG4/ISO/AVC
    Duration : 1 h 36 min
    Bit rate : 2 149 kb/s
    Width : 720 pixels
    Height : 576 pixels
    Display aspect ratio : 16:9
    Original display aspect ratio : 5:4
    Frame rate mode : Constant
    Frame rate : 25.000 FPS
    Standard : PAL
    Color space : YUV
    Chroma subsampling : 4:2:0
    Bit depth : 8 bits
    Scan type : Progressive
    Bits/(Pixel*Frame) : 0.207
    Stream size : 1.40 GiB (69%)
    Writing library : x264 core 115 r1937 aa21558
    Encoding settings : cabac=1 / ref=8 / deblock=1:-2:-2 / analyse=0x3:0x113 / me=umh / subme=8 / psy=1 / psy_rd=1.00:0.10 / mixed_ref=0 / me_range=32 / chroma_me=1 / trellis=2 / 8x8dct=1 / cqm=0 / deadzone=21,11 / fast_pskip=1 / chroma_qp_offset=-3 / threads=6 / sliced_threads=0 / nr=0 / decimate=1 / interlaced=0 / bluray_compat=0 / constrained_intra=0 / bframes=8 / b_pyramid=2 / b_adapt=2 / b_bias=0 / direct=3 / weightb=1 / open_gop=0 / weightp=0 / keyint=250 / keyint_min=25 / scenecut=40 / intra_refresh=0 / rc_lookahead=30 / rc=2pass / mbtree=1 / bitrate=2149 / ratetol=1.0 / qcomp=0.60 / qpmin=15 / qpmax=47 / qpstep=3 / cplxblur=20.0 / qblur=0.5 / ip_ratio=1.40 / aq=1:1.10
    Default : Yes
    Forced : No
    Statistics Tags Issue : mkvmerge v11.0.0 ('Alive') 64bit 2017-09-02 01:08:33 / mkvmerge v5.7.0 ('The Whirlwind') built on Jul 29 2012 15:12:35 2017-09-02 07:26:06
    FromStats_BitRate : 2148846
    FromStats_Duration : 01:36:10.480000000
    FromStats_FrameCount : 144262
    FromStats_StreamSize : 1549984646
    Audio #1
    ID : 2
    Format : AC-3
    Format/Info : Audio Coding 3
    Format settings, Endianness : Big
    Muxing mode : Header stripping
    Codec ID : A_AC3
    Duration : 1 h 36 min
    Bit rate mode : Constant
    Bit rate : 448 kb/s
    Channel(s) : 6 channels
    Channel positions : Front: L C R, Side: L R, LFE
    Sampling rate : 48.0 kHz
    Frame rate : 31.250 FPS (1536 SPF)
    Bit depth : 16 bits
    Compression mode : Lossy
    Stream size : 308 MiB (15%)
    Title : acolith
    Language : Russian
    Service kind : Complete Main
    Default : Yes
    Forced : No
    Statistics Tags Issue : mkvmerge v11.0.0 ('Alive') 64bit 2017-09-02 01:08:33 / mkvmerge v5.7.0 ('The Whirlwind') built on Jul 29 2012 15:12:35 2017-09-02 07:26:06
    FromStats_BitRate : 448000
    FromStats_Duration : 01:36:10.464000000
    FromStats_FrameCount : 180327
    FromStats_StreamSize : 323145984
    Audio #2
    ID : 3
    Format : AC-3
    Format/Info : Audio Coding 3
    Format settings, Endianness : Big
    Muxing mode : Header stripping
    Codec ID : A_AC3
    Duration : 1 h 36 min
    Bit rate mode : Constant
    Bit rate : 448 kb/s
    Channel(s) : 6 channels
    Channel positions : Front: L C R, Side: L R, LFE
    Sampling rate : 48.0 kHz
    Frame rate : 31.250 FPS (1536 SPF)
    Bit depth : 16 bits
    Compression mode : Lossy
    Stream size : 308 MiB (15%)
    Title : Оригинал
    Language : Polish
    Service kind : Complete Main
    Default : No
    Forced : No
    Statistics Tags Issue : mkvmerge v11.0.0 ('Alive') 64bit 2017-09-02 01:08:33 / mkvmerge v5.7.0 ('The Whirlwind') built on Jul 29 2012 15:12:35 2017-09-02 07:26:06
    FromStats_BitRate : 448000
    FromStats_Duration : 01:36:10.464000000
    FromStats_FrameCount : 180327
    FromStats_StreamSize : 323145984

    Скриншот c названием фильма

    Скриншоты


  • Фильмы 2006-2010 > Отступники / The Departed (Мартин Скорсезе / Martin Scorcese) [2006, США, Гонконг, триллер, драма, криминал, HDTVRip-AVC] [Open Matte] DVO (Гланц и Королёва) + 2x AVO (Гаврилов, Немахов) + Sub Rus Eng + Original Eng
  • 12-Сен-2017 08:50

    Ranku

    Отступники / The Departed / Open Matte
    Год выпуска: 2006
    Страна: США, Гонконг
    Жанр: триллер, драма, криминал
    Продолжительность: 02:25:07
    Перевод: Профессиональный (двухголосый закадровый) Гланц и Королёва
    Перевод 2: Авторский (одноголосый закадровый) А.Гаврилов
    Перевод 3: Авторский (одноголосый закадровый) Ю.Немахов
    Субтитры: русские, английские
    Оригинальная аудиодорожка: английский
    Режиссер: Мартин Скорсезе / Martin Scorcese
    В ролях: Леонардо ДиКаприо, Мэтт Дэймон, Джек Николсон, Марк Уолберг, Мартин Шин, Рэй Уинстон, Вера Фармига, Энтони Андерсон, Алек Болдуин, Кевин Корригэн
    Описание: Два лучших выпускника полицейской академии оказались по разные стороны баррикады: один из них — агент мафии в рядах правоохранительных органов, другой — «крот», внедрённый в мафию. Каждый считает своим долгом обнаружить и уничтожить противника, но постоянная жизнь в искажённых реалиях меняет внутренний мир героев.
    Доп. информация: Различия BD и HDTV - разное наполнение кадра - 16:9 (1.78:1) -> http://screenshotcomparison.com/comparison/116326
    Фильмы в Fullscreen (4:3) и Open Matte (16:9) форматах
    Сэмпл: http://multi-up.com/1166800
    Качество видео: HDTVRip-AVC Исходник
    Формат видео: MKV
    Видео: MPEG-4 AVC/H.264 / 1943 kbps / 1024x576 / 25.000 fps
    Аудио 1: DVO Гланц и Королёва (Rus) / AC3 / 6 ch / 448 kbps / 48 kHz
    Аудио 2: Original (Eng) / AC3 / 6 ch / 448 kbps / 48 kHz
    Аудио 3: AVO Гаврилов (Rus) / AC3 / 6 ch / 448 kbps / 48 kHz - отдельно
    Аудио 4: AVO Немахов (Rus) / AC3 / 6 ch / 448 kbps / 48 kHz - отдельно
    Формат субтитров: softsub (SRT)
    Доп. информация о субтитрах: Русские (3x full), Английские (full)

    MediaInfo

    General
    Unique ID : 214086698461565446584453559281441022883 (0xA10F992BE81D089D9B2659E3C2BFA3A3)
    Complete name : J:\Torrents\Готовые релизы\Отступники (2006) HDTVRip-AVC [Open Matte]\Отступники (2006) HDTVRip-AVC [Open Matte].mkv
    Format : Matroska
    Format version : Version 2
    File size : 2.94 GiB
    Duration : 2 h 25 min
    Overall bit rate : 2 897 kb/s
    Movie name : Отступники / The Departed (2006) [Open Matte]
    Encoded date : UTC 2017-08-22 22:03:45
    Writing application : mkvmerge v5.5.0 ('Healer') built on Apr 24 2012 23:47:03
    Writing library : libebml v1.2.3 + libmatroska v1.3.0
    Video
    ID : 1
    Format : AVC
    Format/Info : Advanced Video Codec
    Format profile : [email protected]
    Format settings, CABAC : Yes
    Format settings, ReFrames : 8 frames
    Codec ID : V_MPEG4/ISO/AVC
    Duration : 2 h 25 min
    Bit rate : 1 943 kb/s
    Nominal bit rate : 2 081 kb/s
    Width : 1 024 pixels
    Height : 576 pixels
    Display aspect ratio : 16:9
    Frame rate mode : Constant
    Frame rate : 25.000 FPS
    Color space : YUV
    Chroma subsampling : 4:2:0
    Bit depth : 8 bits
    Scan type : Progressive
    Bits/(Pixel*Frame) : 0.132
    Stream size : 1.97 GiB (67%)
    Title : HDTVRip (AVC) / MPEG-4 AVC/H.264 / 1943 kbps / 1024x576 / 25.000 fps
    Writing library : x264 core 146 r2538 121396c
    Encoding settings : cabac=1 / ref=8 / deblock=1:0:0 / analyse=0x3:0x113 / me=umh / subme=10 / psy=1 / psy_rd=1.00:0.00 / mixed_ref=1 / me_range=32 / chroma_me=1 / trellis=2 / 8x8dct=1 / cqm=0 / deadzone=21,11 / fast_pskip=0 / chroma_qp_offset=-2 / threads=6 / lookahead_threads=1 / sliced_threads=0 / nr=0 / decimate=1 / interlaced=0 / bluray_compat=0 / constrained_intra=0 / bframes=9 / b_pyramid=2 / b_adapt=2 / b_bias=0 / direct=3 / weightb=1 / open_gop=0 / weightp=2 / keyint=250 / keyint_min=25 / scenecut=40 / intra_refresh=0 / rc_lookahead=50 / rc=2pass / mbtree=1 / bitrate=2081 / ratetol=1.0 / qcomp=0.60 / qpmin=0 / qpmax=69 / qpstep=4 / cplxblur=20.0 / qblur=0.5 / vbv_maxrate=14000 / vbv_bufsize=14000 / nal_hrd=none / filler=0 / ip_ratio=1.40 / aq=1:1.00
    Language : English
    Default : Yes
    Forced : Yes
    Audio #1
    ID : 2
    Format : AC-3
    Format/Info : Audio Coding 3
    Mode extension : CM (complete main)
    Format settings, Endianness : Big
    Codec ID : A_AC3
    Duration : 2 h 25 min
    Bit rate mode : Constant
    Bit rate : 448 kb/s
    Channel(s) : 6 channels
    Channel positions : Front: L C R, Side: L R, LFE
    Sampling rate : 48.0 kHz
    Frame rate : 31.250 FPS (1536 spf)
    Bit depth : 16 bits
    Compression mode : Lossy
    Stream size : 465 MiB (15%)
    Title : DVO Гланц и Королёва (Rus) / AC3 / 6 ch / 448 kbps / 48 kHz
    Language : Russian
    Default : Yes
    Forced : Yes
    Audio #2
    ID : 3
    Format : AC-3
    Format/Info : Audio Coding 3
    Mode extension : CM (complete main)
    Format settings, Endianness : Big
    Codec ID : A_AC3
    Duration : 2 h 25 min
    Bit rate mode : Constant
    Bit rate : 448 kb/s
    Channel(s) : 6 channels
    Channel positions : Front: L C R, Side: L R, LFE
    Sampling rate : 48.0 kHz
    Frame rate : 31.250 FPS (1536 spf)
    Bit depth : 16 bits
    Compression mode : Lossy
    Stream size : 465 MiB (15%)
    Title : Original (Eng) / AC3 / 6 ch / 448 kbps / 48 kHz
    Language : English
    Default : No
    Forced : No
    Text #1
    ID : 4
    Format : UTF-8
    Codec ID : S_TEXT/UTF8
    Codec ID/Info : UTF-8 Plain Text
    Title : Full [DVD R5] (Rus) / S_TEXT/UTF8
    Language : Russian
    Default : No
    Forced : No
    Text #2
    ID : 5
    Format : UTF-8
    Codec ID : S_TEXT/UTF8
    Codec ID/Info : UTF-8 Plain Text
    Title : Full [REN] (Rus) / S_TEXT/UTF8
    Language : Russian
    Default : No
    Forced : No
    Text #3
    ID : 6
    Format : UTF-8
    Codec ID : S_TEXT/UTF8
    Codec ID/Info : UTF-8 Plain Text
    Title : Full [sunny-sko] (Rus) / S_TEXT/UTF8
    Language : Russian
    Default : No
    Forced : No
    Text #4
    ID : 7
    Format : UTF-8
    Codec ID : S_TEXT/UTF8
    Codec ID/Info : UTF-8 Plain Text
    Title : Full [SDH] (Eng) / S_TEXT/UTF8
    Language : English
    Default : No
    Forced : No

    Скриншот c названием фильма

    Скриншоты

  • Фильмы 2006-2010 > Обман / The Hustle (Деон Тейлор / Deon Taylor) [2008, 2010, США, комедия, DVB] MVO (Студия Акцент) + Original (Eng)
  • 12-Сен-2017 08:49

    Ranku

    Обман
    The Hustle- Страна: США
    Жанр: комедия
    Год выпуска: 2008 (версия 2010 года)
    Продолжительность: 01:33:09
    Перевод: Профессиональный (многоголосый закадровый) Студия "Акцент" по заказу Kino Polska
    Субтитры: нет
    Оригинальная аудиодорожка: английский
    Режиссер: Деон Тейлор / Deon Taylor
    В ролях: Чарли Мёрфи / Charlie Murphy (Junior Walker), Аль Ширер / Al Shearer (Freddy Manning), Тамала Джонс / Tamala Jones (Nikki), Бриджит Нильсен / Brigitte Nielsen (Rich Woman), Дэвид Алан Грир / David Alan Grier (Rev. Isaac Montgomery Paid), Тони Кокс / Tony Cox (Biggman), Луэнелль / Luenell (Metermaid), Дэвид Фаустино / David Faustino (Derrick)
    Описание: Дезинсектор Фредди Мэннинг из-за стечения нелепейших обстоятельств взят на мушку азиатской мафией. В конце концов он находит выход из этого, казалось безвыходного, положения. Он выдает себя за священника. Он ничего не знает о службе, но его веселые, прямолинейные проповеди, похоже, трогают людей, и никто не удивляется, когда его поддельные исцеления становятся реальными...
    Доп. информация: Intelsat 15 (85.0°E) Filmbox DVB-S
    Участник Sacramento Film Festival 2008.

    Качество видео: DVB
    Формат видео: MKV
    Видео: MPEG Video 2, [email protected] (16:9), 25 fps, ~2402 kbps avg, 0.232 bit/pixel
    Аудио 1: MPEG Audio 2, 2 ch, 48 kHz, 128 kbps - русский
    Аудио 2: MPEG Audio 2, 2 ch, 48 kHz, 128 kbps - английский

    MediaInfo

    General
    Unique ID : 195534153336195236405650429892228087768 (0x931A82133D179D969572B129E540FFD8)
    Complete name : [apreder]The_Hustle(2010)DVB.mkv
    Format : Matroska
    Format version : Version 2
    File size : 1.73 GiB
    Duration : 1 h 33 min
    Overall bit rate mode : Variable
    Overall bit rate : 2 664 kb/s
    Movie name : The Hustle
    Released date : 2010-00-00
    Encoded date : UTC 2017-09-01 13:32:05
    Writing application : mkvmerge v15.0.0 ('Duel with the Devil') 64-bit
    Writing library : libebml v1.3.5 + libmatroska v1.4.5
    Cover : Yes
    Attachments : cover.jpg / small_cover.jpg
    ACTOR : Charlie Murphy, Al Shearer, Tamala Jones
    DIRECTOR : Deon Taylor
    GENRE : Comedy
    IMDB : tt1119186
    KEYWORDS : rutracker.org
    LAW_RATING : 16+
    Video
    ID : 1
    Format : MPEG Video
    Format version : Version 2
    Format profile : [email protected]
    Format settings, BVOP : Yes
    Format settings, Matrix : Custom
    Format settings, GOP : M=4, N=12
    Format settings, picture structure : Frame
    Codec ID : V_MPEG2
    Codec ID/Info : MPEG 1 or 2 Video
    Duration : 1 h 33 min
    Bit rate mode : Variable
    Bit rate : 2 402 kb/s
    Maximum bit rate : 10 000 kb/s
    Width : 720 pixels
    Height : 576 pixels
    Display aspect ratio : 16:9
    Frame rate mode : Constant
    Frame rate : 25.000 FPS
    Standard : PAL
    Color space : YUV
    Chroma subsampling : 4:2:0
    Bit depth : 8 bits
    Scan type : Interlaced
    Scan order : Top Field First
    Compression mode : Lossy
    Bits/(Pixel*Frame) : 0.232
    Time code of first frame : 00:00:00:00
    Time code source : Group of pictures header
    GOP, Open/Closed : Open
    Stream size : 1.56 GiB (90%)
    Default : Yes
    Forced : No
    Audio #1
    ID : 2
    Format : MPEG Audio
    Format version : Version 1
    Format profile : Layer 2
    Codec ID : A_MPEG/L2
    Codec ID/Hint : MP2
    Duration : 1 h 33 min
    Bit rate mode : Constant
    Bit rate : 128 kb/s
    Channel(s) : 2 channels
    Sampling rate : 48.0 kHz
    Frame rate : 41.667 FPS (1152 SPF)
    Compression mode : Lossy
    Stream size : 85.3 MiB (5%)
    Language : Russian
    Default : Yes
    Forced : No
    Audio #2
    ID : 3
    Format : MPEG Audio
    Format version : Version 1
    Format profile : Layer 2
    Codec ID : A_MPEG/L2
    Codec ID/Hint : MP2
    Duration : 1 h 33 min
    Bit rate mode : Constant
    Bit rate : 128 kb/s
    Channel(s) : 2 channels
    Sampling rate : 48.0 kHz
    Frame rate : 41.667 FPS (1152 SPF)
    Compression mode : Lossy
    Stream size : 85.3 MiB (5%)
    Language : English
    Default : No
    Forced : No

    Скриншот c названием фильма

    Скриншоты


    Резервные скриншоты


    - [3'853]
  • Фильмы 2006-2010 > Укротитель поезда / Train Master (Фил Брэнсом / Phil Bransom) [2008, США, приключенческий, DVB] MVO (Студия Акцент) + Original (Eng)
  • 12-Сен-2017 08:49

    Ranku

    Укротитель поезда
    Train Master- Страна: США
    Жанр: приключенческий
    Год выпуска: 2008
    Продолжительность: 01:33:05
    Перевод: Профессиональный (многоголосый закадровый) Студия "Акцент" по заказу Kino Polska
    Субтитры: нет
    Оригинальная аудиодорожка: английский
    Режиссер: Фил Брэнсом / Phil Bransom
    В ролях: Джон Эшли Холл / Jon Ashley Hall (Brett Banner), Майкл Бьесанз / Michael Biesanz (Jeremiah Wilson), Мерседес Роуз / Mercedes Rose (Jennifer Wilson-Ward), Элайджа Нельсон / Elijah Nelson (Thomas Wilson-Ward), Иа Гилберт / Ia Gilbert (Sarah Wilson-Ward), Дэниэл Нельсон / Daniel Nelson (Justin Banner), Ноа Смит / Noah Smith (Douglas Snyder)
    Описание: Группа провинциальных детей отправляется на поиски приключений на грузовом поезде, который в какой-то момент окажется неуправляемым и потребует от ребят проявления небывалых храбрости и смекалки.
    Доп. информация: Intelsat 15 (85.0°E) Filmbox DVB-S
    Награды: приз за лучший фильм Accolade Competition 2008; 2 награды KIDS FIRST! Film Festival 2008 (2-е место за лучший независимый фильм для детей в возрасте 8-12 лет; 2-е место за лучший сценарий семейного фильма).

    Качество видео: DVB
    Формат видео: MKV
    Видео: MPEG Video 2, [email protected] (16:9), 25 fps, ~2616 kbps avg, 0.252 bit/pixel
    Аудио 1: MPEG Audio 2, 2 ch, 48 kHz, 128 kbps - русский
    Аудио 2: MPEG Audio 2, 2 ch, 48 kHz, 128 kbps - английский

    MediaInfo

    General
    Unique ID : 208175651590489223989154774879224893815 (0x9C9D2C0F569E8BD68F7A8C27540E9177)
    Complete name : [apreder]Train_Master(2008)DVB.mkv
    Format : Matroska
    Format version : Version 2
    File size : 1.87 GiB
    Duration : 1 h 33 min
    Overall bit rate mode : Variable
    Overall bit rate : 2 877 kb/s
    Movie name : Train Master
    Released date : 2008-06-06
    Encoded date : UTC 2017-09-02 09:10:55
    Writing application : mkvmerge v15.0.0 ('Duel with the Devil') 64-bit
    Writing library : libebml v1.3.5 + libmatroska v1.4.5
    Cover : Yes
    Attachments : cover.jpg / small_cover.jpg
    ACTOR : Jon Ashley Hall, Michael Biesanz, Mercedes Rose
    DIRECTOR : Phil Bransom
    GENRE : Adventures
    IMDB : tt0995842
    KEYWORDS : rutracker.org
    LAW_RATING : 12+
    Video
    ID : 1
    Format : MPEG Video
    Format version : Version 2
    Format profile : [email protected]
    Format settings, BVOP : Yes
    Format settings, Matrix : Custom
    Format settings, GOP : M=4, N=12
    Format settings, picture structure : Frame
    Codec ID : V_MPEG2
    Codec ID/Info : MPEG 1 or 2 Video
    Duration : 1 h 33 min
    Bit rate mode : Variable
    Bit rate : 2 616 kb/s
    Maximum bit rate : 10 000 kb/s
    Width : 720 pixels
    Height : 576 pixels
    Display aspect ratio : 16:9
    Frame rate mode : Constant
    Frame rate : 25.000 FPS
    Standard : PAL
    Color space : YUV
    Chroma subsampling : 4:2:0
    Bit depth : 8 bits
    Scan type : Interlaced
    Scan order : Top Field First
    Compression mode : Lossy
    Bits/(Pixel*Frame) : 0.252
    Time code of first frame : 00:00:00:00
    Time code source : Group of pictures header
    GOP, Open/Closed : Open
    Stream size : 1.70 GiB (91%)
    Default : Yes
    Forced : No
    Audio #1
    ID : 2
    Format : MPEG Audio
    Format version : Version 1
    Format profile : Layer 2
    Codec ID : A_MPEG/L2
    Codec ID/Hint : MP2
    Duration : 1 h 33 min
    Bit rate mode : Constant
    Bit rate : 128 kb/s
    Channel(s) : 2 channels
    Sampling rate : 48.0 kHz
    Frame rate : 41.667 FPS (1152 SPF)
    Compression mode : Lossy
    Stream size : 85.2 MiB (4%)
    Language : Russian
    Default : Yes
    Forced : No
    Audio #2
    ID : 3
    Format : MPEG Audio
    Format version : Version 1
    Format profile : Layer 2
    Codec ID : A_MPEG/L2
    Codec ID/Hint : MP2
    Duration : 1 h 33 min
    Bit rate mode : Constant
    Bit rate : 128 kb/s
    Channel(s) : 2 channels
    Sampling rate : 48.0 kHz
    Frame rate : 41.667 FPS (1152 SPF)
    Compression mode : Lossy
    Stream size : 85.2 MiB (4%)
    Language : English
    Default : No
    Forced : No

    Скриншот c названием фильма

    Скриншоты


    Резервные скриншоты


    - [3'857]
  • Фильмы 2006-2010 > Астерикс на Олимпийских играх / Asterix aux jeux olympiques (Фредерик Форестье / Frederic Forestier, Тома Лангманн / Thomas Langmann) [2008, Германия, Италия, комедия, приключения, семейный, BDRip] Dub + Sub Rus, Eng + Original Fre
  • 12-Сен-2017 08:49

    Ranku

    Астерикс на Олимпийских играх / Asterix aux jeux olympiques
    Страна: Германия, Франция, Италия
    Жанр: фэнтези, комедия, приключения, семейный
    Год выпуска: 2008
    Продолжительность: 01:57:14
    Перевод: Профессиональный (дублированный)
    Субтитры: русские, английские
    Оригинальная аудиодорожка: французский-Режиссер: Фредерик Форестье / Frederic Forestier, Тома Лангманн / Thomas Langmann-В ролях: Жерар Депардье (Obelix), Кловис Корнийяк (Asterix), Бенуа Пульворд (Brutus), Ален Делон (Jules Cesar), Ванесса Эсслер (Princesse Irina), Франк Дубоск (Assurancetourix), Хосе Гарсия (Couverdepus), Стефан Руссо (Alafolix), Жан-Пьер Кассель (Panoramix), Эли Семун (Omega).-Описание: 50 лет до Рождества Христова. Вся Галлия под властью Римской Империи. Но не стоит огорчаться: одна деревня продолжает героическое сопротивление. Ведь ее жители уверены в собственной непобедимости. Уже несколько месяцев сердце Полюбвикса бьется только ради греческой принцессы Ирины. Но, увы, он не единственный претендент на ее руку. Большая политика предназначила Ирину в жены Бруту, сыну Юлия Цезаря. Чтобы оттянуть нежеланный брак и дать шанс Полюбвиксу Ирина объявляет, что выйдет замуж за победителя Олимпийских Игр. Итак, Полюбвикс приступает к тренировкам под руководством тех, кто быстрее, выше, сильнее, и, разумеется, умнее всех — Астерикса и Обеликса. А хитрый Брут — к разработке коварного плана.-Качество видео: BDRip | Asteriks.na.Olimpiyskih.igrah.2008.x264.BDRemux(1080p).HQ-film
    Формат видео: AVI
    Видео: 720x304 (2.37:1), 24.000 fps, XviD build 73 ~1911 kbps avg, 0.36 bit/pixel
    Аудио 1: 48 kHz, AC3 Dolby Digital, 3/2 (L,C,R,l,r) + LFE ch, ~384 kbps | Rus
    Аудио 2: 48 kHz, AC3 Dolby Digital, 3/2 (L,C,R,l,r) + LFE ch, ~384 kbps | Fre-Сэмпл-

    MediaInfo

    Format                      : AVI
    Format/Info                 : Audio Video Interleave
    Format profile              : OpenDML
    File size                   : 2.20 GiB
    Duration                    : 1 h 57 min
    Overall bit rate            : 2 686 kb/s
    Writing application         : VirtualDubMod 1.5.10.2 (build 2542/release)
    Writing library             : VirtualDubMod build 2542/release
    Video
    ID                          : 0
    Format                      : MPEG-4 Visual
    Format profile              : Advanced [email protected]
    Format settings, BVOP       : 1
    Format settings, QPel       : No
    Format settings, GMC        : No warppoints
    Format settings, Matrix     : Custom
    Codec ID                    : XVID
    Codec ID/Hint               : XviD
    Duration                    : 1 h 57 min
    Bit rate                    : 1 901 kb/s
    Width                       : 720 pixels
    Height                      : 304 pixels
    Display aspect ratio        : 2.35:1
    Frame rate                  : 24.000 FPS
    Color space                 : YUV
    Chroma subsampling          : 4:2:0
    Bit depth                   : 8 bits
    Scan type                   : Progressive
    Compression mode            : Lossy
    Bits/(Pixel*Frame)          : 0.362
    Stream size                 : 1.56 GiB (71%)
    Writing library             : XviD 73
    Audio #1
    ID                          : 1
    Format                      : AC-3
    Format/Info                 : Audio Coding 3
    Format settings, Endianness : Big
    Codec ID                    : 2000
    Duration                    : 1 h 57 min
    Bit rate mode               : Constant
    Bit rate                    : 384 kb/s
    Channel(s)                  : 6 channels
    Channel positions           : Front: L C R, Side: L R, LFE
    Sampling rate               : 48.0 kHz
    Frame rate                  : 31.250 FPS (1536 spf)
    Bit depth                   : 16 bits
    Compression mode            : Lossy
    Stream size                 : 322 MiB (14%)
    Alignment                   : Split accross interleaves
    Interleave, duration        : 42  ms (1.00 video frame)
    Interleave, preload duratio : 500  ms
    Service kind                : Complete Main
    Audio #2
    ID                          : 2
    Format                      : AC-3
    Format/Info                 : Audio Coding 3
    Format settings, Endianness : Big
    Codec ID                    : 2000
    Duration                    : 1 h 57 min
    Bit rate mode               : Constant
    Bit rate                    : 384 kb/s
    Channel(s)                  : 6 channels
    Channel positions           : Front: L C R, Side: L R, LFE
    Sampling rate               : 48.0 kHz
    Frame rate                  : 31.250 FPS (1536 spf)
    Bit depth                   : 16 bits
    Compression mode            : Lossy
    Stream size                 : 322 MiB (14%)
    Alignment                   : Split accross interleaves
    Interleave, duration        : 42  ms (1.00 video frame)
    Interleave, preload duratio : 500  ms
    Service kind                : Complete Main

    Скриншоты

  • Фильмы 2006-2010 > Девичьи обещанья / Девичьи обеты / Sluby panienskie (Филип Байон / Filip Bajon) [2010, Польша, мелодрама, комедия, DVDRip] VO (acolith)
  • 12-Сен-2017 08:49

    Ranku

    Девичьи обещанья / Девичьи обеты / Sluby panienskie- Страна: Польша
    Жанр: мелодрама, комедия
    Год выпуска: 2010
    Продолжительность: 01:36:10
    Перевод: Одноголосый закадровый acolith
    Субтитры: нет
    Оригинальная аудиодорожка: польский-Режиссер: Филип Байон / Filip Bajon-В ролях:
    Анна Цесляк, Мацей Штур, Марта Жмуда Тшебятовска, Борис Шыц, Робэрт Вецкевич, Эдита Ольшувка, Анджей Грабовски, Виктор Зборовский, Ежи Рогальский, Михал Пеля и другие.-Описание:
    Альбин и Густав – друзья и разгульные парни, которые пытаются любой ценой соблазнить девушек Анелю и Клару, решительно настроенных против всех, по их мнению, всегда неискренних и коварных мужчин. Однако на этот раз поиски слабых точек женщин, чтобы обрести желаемое – встречают жёсткий отпор и терпят неудачи. Но зато девушки делают все возможное, чтобы как можно дольше водить за нос и с наслаждением мучить незадачливых мужчин. Начинается большая война мужчин-женщин, разыгрывается полный интриг и разбитых сердец сюжет, где допускаются разнообразные хитрые и коварные комбинации.-Дополнительная информация: стихотворный перевод
    Видеоряд отсюда: http://rutracker.org/forum/viewtopic.php?t=3578663-Сэмпл: http://sendfile.su/1359519-Качество видео: DVDRip
    Формат видео: AVI
    Видео: XviD, 720x384 (1.85:1), 25fps, ~2395kb/s (0.346 bit/pixel)
    Аудио 1: 48 kHz, AC3 Dolby Digital 3/2 (L,C,R,l,r) + LFE ch, ~448 kbps русский одноголосый
    Аудио 2: 48 kHz, AC3 Dolby Digital 3/2 (L,C,R,l,r) + LFE ch, ~448 kbps польский

    MediaInfo

    General
    Complete name
    Format : AVI
    Format/Info : Audio Video Interleave
    Format profile : OpenDML
    File size : 2.22 GiB
    Duration : 1 h 36 min
    Overall bit rate : 3 309 kb/s
    Writing application : VirtualDubMod 1.5.10.2 (build 2540/release)
    Writing library : VirtualDubMod build 2540/release
    Video
    ID : 0
    Format : MPEG-4 Visual
    Format profile : Advanced [email protected]
    Format settings, BVOP : 1
    Format settings, QPel : No
    Format settings, GMC : No warppoints
    Format settings, Matrix : Custom
    Codec ID : XVID
    Codec ID/Hint : XviD
    Duration : 1 h 36 min
    Bit rate : 2 395 kb/s
    Width : 720 pixels
    Height : 384 pixels
    Display aspect ratio : 1.85:1
    Frame rate : 25.000 FPS
    Color space : YUV
    Chroma subsampling : 4:2:0
    Bit depth : 8 bits
    Scan type : Progressive
    Compression mode : Lossy
    Bits/(Pixel*Frame) : 0.346
    Stream size : 1.61 GiB (72%)
    Writing library : XviD 1.2.1 (UTC 2008-12-04)
    Audio #1
    ID : 1
    Format : AC-3
    Format/Info : Audio Coding 3
    Format settings, Endianness : Big
    Codec ID : 2000
    Duration : 1 h 36 min
    Bit rate mode : Constant
    Bit rate : 448 kb/s
    Channel(s) : 6 channels
    Channel positions : Front: L C R, Side: L R, LFE
    Sampling rate : 48.0 kHz
    Frame rate : 31.250 FPS (1536 SPF)
    Bit depth : 16 bits
    Compression mode : Lossy
    Stream size : 308 MiB (14%)
    Alignment : Split accross interleaves
    Interleave, duration : 40 ms (1.00 video frame)
    Interleave, preload duration : 500 ms
    Service kind : Complete Main
    Audio #2
    ID : 2
    Format : AC-3
    Format/Info : Audio Coding 3
    Format settings, Endianness : Big
    Codec ID : 2000
    Duration : 1 h 36 min
    Bit rate mode : Constant
    Bit rate : 448 kb/s
    Channel(s) : 6 channels
    Channel positions : Front: L C R, Side: L R, LFE
    Sampling rate : 48.0 kHz
    Frame rate : 31.250 FPS (1536 SPF)
    Bit depth : 16 bits
    Compression mode : Lossy
    Stream size : 308 MiB (14%)
    Alignment : Split accross interleaves
    Interleave, duration : 40 ms (1.00 video frame)
    Interleave, preload duration : 500 ms
    Service kind : Complete Main

    Скриншот c названием фильма

    Скриншоты


  • Фильмы 2006-2010 > Смертельная ловушка / Deadfall Trail (Роз / Roze) [2009, США, триллер, ужасы, SATRip] MVO
  • 12-Сен-2017 08:48

    Ranku

    Смертельная ловушка / Deadfall Trail
    Год выпуска: 2009
    Страна: США
    Жанр: триллер, ужасы
    Продолжительность: 01:33:24.720 (140118 frames)
    Перевод: Профессиональный (многоголосый закадровый) Студия "Акцент"
    Оригинальная аудиодорожка: нет
    Русские субтитры: нет
    Режиссер: Роз / Roze
    В ролях: Слэйд Холл / Slade Hall (John), Шэйн Дин / Shane Dean (Julian), Кэвин Грэй / Cavin Gray (Paul), Катрина Райан / Katrina M. Ryan (Mother Earth)
    Описание: Джон, Джулиан и Пол выезжают на трехнедельную поездку в Национальный парк Аризоны. Задача во что бы то ни стало выжить при любых условиях с бутылкой воды и ножом. Но роковой поворот событий изменяет всё, и мужчины вынуждены противостоять друг другу.
    Качество: SATRip
    Формат: AVI
    Видео кодек: XviD
    Аудио кодек: МР3
    Видео: 720x304 (2.37:1), 25 fps, XviD build 73 ~2092 kbps avg, 0.38 bit/pixel
    Аудио: 48 kHz, MPEG Layer 3, 2 ch, ~128.00 kbps avg

    Скриншоты

    Медиаинфо

    F:\004 Мои раздачи\Смертельная ловушка 1,46\smertelnaya_lovushka_1.46_[torrents.ru]_by_bm11.avi
    General
    Complete name : F:\004 Мои раздачи\Смертельная ловушка 1,46\smertelnaya_lovushka_1.46_[torrents.ru]_by_bm11.avi
    Format : AVI
    Format/Info : Audio Video Interleave
    File size : 1.46 GiB
    Duration : 1h 33mn
    Overall bit rate : 2 231 Kbps
    Director : bm11
    Writing application : VirtualDubMod 1.5.10.3 | www.virtualdub-fr.org || (build 2550/release)
    Video
    Format : MPEG-4 Visual
    Format profile : Streaming [email protected]
    Format settings, BVOP : Yes
    Format settings, QPel : No
    Format settings, GMC : No warppoints
    Format settings, Matrix : Custom
    Codec ID : XVID
    Codec ID/Hint : XviD
    Duration : 1h 33mn
    Bit rate : 2 093 Kbps
    Width : 720 pixels
    Height : 304 pixels
    Display aspect ratio : 2.35
    Frame rate : 25.000 fps
    Resolution : 24 bits
    Colorimetry : 4:2:0
    Scan type : Progressive
    Bits/(Pixel*Frame) : 0.382
    Stream size : 1.37 GiB (94%)
    Writing library : XviD 73
    Audio
    Format : MPEG Audio
    Format version : Version 1
    Format profile : Layer 3
    Codec ID : 55
    Codec ID/Hint : MP3
    Duration : 1h 33mn
    Bit rate mode : Constant
    Bit rate : 128 Kbps
    Minimum bit rate : 128 Kbps
    Channel(s) : 2 channels
    Sampling rate : 48.0 KHz
    Resolution : 16 bits
    Stream size : 85.5 MiB (6%)
    Alignment : Aligned on interleaves
    Interleave, duration : 40 ms (1.00 video frame)
    Interleave, preload duration : 504 ms
    Writing library : LAME3.99r
    Encoding settings : CBR
  • Фильмы 2006-2010 > Укротитель поезда / Train Master (Фил Брэнсом / Phil Bransom) [2008, США, приключения, SATRip] MVO
  • 12-Сен-2017 08:48

    Ranku

    Укротитель поезда / Train Master
    Год выпуска: 2008
    Страна: США
    Жанр: приключения
    Продолжительность: 01:33:05.240 (139631 frames)
    Перевод: Профессиональный (многоголосый закадровый) Студия "Акцент"
    Оригинальная аудиодорожка: нет
    Русские субтитры: нет
    Режиссер: Фил Брэнсом / Phil Bransom
    В ролях: Джон Эшли Холл / Jon Ashley Hall (Brett Banner), Майкл Бьесанз / Michael Biesanz (Jeremiah Wilson), Мерседес Роуз / Mercedes Rose (Jennifer Wilson-Ward), Элайджа Нельсон / Elijah Nelson (Thomas Wilson-Ward), Иа Гилберт / Ia Gilbert (Sarah Wilson-Ward), Дэниэл Нельсон / Daniel Nelson (Justin Banner), Ноа Смит / Noah Smith (Douglas Snyder)
    Описание: Группа провинциальных детей отправляется на поиски приключений на грузовом поезде, который в какой-то момент окажется неуправляемым и потребует от ребят проявления небывалых храбрости и смекалки.
    Качество: SATRip
    Формат: AVI
    Видео кодек: XviD
    Аудио кодек: МР3
    Видео: 720x400 (1.80:1), 25 fps, XviD build 73 ~2100 kbps avg, 0.29 bit/pixel
    Аудио: 48 kHz, MPEG Layer 3, 2 ch, ~128.00 kbps avg

    Медиаинфо

    F:\004 Мои раздачи\Укротитель поезда 1,46\ukrotitel_poezda_1.46_[torrents.ru]_by_bm11.avi
    General
    Complete name : F:\004 Мои раздачи\Укротитель поезда 1,46\ukrotitel_poezda_1.46_[torrents.ru]_by_bm11.avi
    Format : AVI
    Format/Info : Audio Video Interleave
    File size : 1.46 GiB
    Duration : 1h 33mn
    Overall bit rate : 2 238 Kbps
    Director : bm11
    Writing application : VirtualDubMod 1.5.10.3 | www.virtualdub-fr.org || (build 2550/release)
    Video
    Format : MPEG-4 Visual
    Format profile : Streaming [email protected]
    Format settings, BVOP : Yes
    Format settings, QPel : No
    Format settings, GMC : No warppoints
    Format settings, Matrix : Custom
    Codec ID : XVID
    Codec ID/Hint : XviD
    Duration : 1h 33mn
    Bit rate : 2 100 Kbps
    Width : 720 pixels
    Height : 400 pixels
    Display aspect ratio : 16/9
    Frame rate : 25.000 fps
    Resolution : 24 bits
    Colorimetry : 4:2:0
    Scan type : Progressive
    Bits/(Pixel*Frame) : 0.292
    Stream size : 1.37 GiB (94%)
    Writing library : XviD 73
    Audio
    Format : MPEG Audio
    Format version : Version 1
    Format profile : Layer 3
    Codec ID : 55
    Codec ID/Hint : MP3
    Duration : 1h 33mn
    Bit rate mode : Constant
    Bit rate : 128 Kbps
    Minimum bit rate : 128 Kbps
    Channel(s) : 2 channels
    Sampling rate : 48.0 KHz
    Resolution : 16 bits
    Stream size : 85.2 MiB (6%)
    Alignment : Aligned on interleaves
    Interleave, duration : 40 ms (1.00 video frame)
    Interleave, preload duration : 504 ms
    Writing library : LAME3.99r
    Encoding settings : CBR
  • Фильмы 2006-2010 > Смертельная ловушка / Deadfall Trail (Роз / Roze) [2009, США, триллер, ужасы, SATRip] MVO
  • 12-Сен-2017 08:48

    Ranku

    Смертельная ловушка / Deadfall Trail
    Год выпуска: 2009
    Страна: США
    Жанр: триллер, ужасы
    Продолжительность: 01:33:24.720 (140118 frames)
    Перевод: Профессиональный (многоголосый закадровый) Студия "Акцент"
    Оригинальная аудиодорожка: нет
    Русские субтитры: нет
    Режиссер: Роз / Roze
    В ролях: Слэйд Холл / Slade Hall (John), Шэйн Дин / Shane Dean (Julian), Кэвин Грэй / Cavin Gray (Paul), Катрина Райан / Katrina M. Ryan (Mother Earth)
    Описание: Джон, Джулиан и Пол выезжают на трехнедельную поездку в Национальный парк Аризоны. Задача во что бы то ни стало выжить при любых условиях с бутылкой воды и ножом. Но роковой поворот событий изменяет всё, и мужчины вынуждены противостоять друг другу.
    Качество: SATRip
    Формат: AVI
    Видео кодек: XviD
    Аудио кодек: МР3
    Видео: 688x288 (2.39:1), 25 fps, XviD build 73 ~977 kbps avg, 0.20 bit/pixel
    Аудио: 48 kHz, MPEG Layer 3, 2 ch, ~128.00 kbps avg

    Скриншоты

    Медиаинфо

    F:\004 Мои раздачи\Смертельная ловушка 745\smertelnaya_lovushka_745_[torrents.ru]_by_bm11.avi
    General
    Complete name : F:\004 Мои раздачи\Смертельная ловушка 745\smertelnaya_lovushka_745_[torrents.ru]_by_bm11.avi
    Format : AVI
    Format/Info : Audio Video Interleave
    File size : 745 MiB
    Duration : 1h 33mn
    Overall bit rate : 1 116 Kbps
    Director : bm11
    Writing application : VirtualDubMod 1.5.10.3 | www.virtualdub-fr.org || (build 2550/release)
    Video
    Format : MPEG-4 Visual
    Format profile : Streaming [email protected]
    Format settings, BVOP : Yes
    Format settings, QPel : No
    Format settings, GMC : No warppoints
    Format settings, Matrix : Custom
    Codec ID : XVID
    Codec ID/Hint : XviD
    Duration : 1h 33mn
    Bit rate : 978 Kbps
    Width : 688 pixels
    Height : 288 pixels
    Display aspect ratio : 2.35
    Frame rate : 25.000 fps
    Resolution : 24 bits
    Colorimetry : 4:2:0
    Scan type : Progressive
    Bits/(Pixel*Frame) : 0.197
    Stream size : 653 MiB (88%)
    Writing library : XviD 73
    Audio
    Format : MPEG Audio
    Format version : Version 1
    Format profile : Layer 3
    Codec ID : 55
    Codec ID/Hint : MP3
    Duration : 1h 33mn
    Bit rate mode : Constant
    Bit rate : 128 Kbps
    Minimum bit rate : 128 Kbps
    Channel(s) : 2 channels
    Sampling rate : 48.0 KHz
    Resolution : 16 bits
    Stream size : 85.5 MiB (11%)
    Alignment : Aligned on interleaves
    Interleave, duration : 40 ms (1.00 video frame)
    Interleave, preload duration : 504 ms
    Writing library : LAME3.99r
    Encoding settings : CBR
  • Фильмы 2006-2010 > Перевозчик 3 / Transporter 3 (Оливье Мегатон / Olivier Megaton) [2008, Франция, Великобритания, Боевик, триллер, приключения, криминал, HDRip-AVC] [Open Matte] Dub + DVO (Гланц и Королёва, Инис) + AVO (Гаврилов, Немахов) + Sub Rus Eng + Original Eng
  • 12-Сен-2017 08:48

    Ranku

    Перевозчик 3 / Transporter 3 / Open Matte
    Страна: Франция, Великобритания
    Жанр: Боевик, триллер, приключения, криминал
    Год выпуска: 2008
    Продолжительность: 01:43:35
    Перевод: Профессиональный (дублированный)
    Перевод 5: Профессиональный (двухголосый закадровый) Гланц и Королёва
    Перевод 6: Профессиональный (двухголосый закадровый) Инис
    Перевод 7: Авторский (одноголосый закадровый) А.Гаврилов
    Перевод 8: Авторский (одноголосый закадровый) Ю.Немахов
    Субтитры: русские, английские
    Оригинальная аудиодорожка: английский
    Режиссер: Оливье Мегатон / Olivier Megaton
    В ролях: Джейсон Стэтхэм, Наталья Рудакова, Франсуа Берлеан, Роберт Нэппер, Ерун Краббе, Алекс Коболд, Дэвид Атракчи, Ян Сандберг, Эрик Эбони, Дэвид Камменос
    Описание: После своих последних приключений в Майами, Фрэнк Мартин решил поменять работу «перевозчика» на спокойную и уединенную жизнь во французской Ривьере.
    Но его планам не суждено было сбыться, когда к нему обратился бывший солдат из отряда «Дельта» Йонас Джонсон.
    Он рассказал, что по заказу корпорации «Ecocorp», занимающейся переработкой и утилизацией отходов, похищена Валентина — дочь украинского министра по охране окружающей среды Леонида Фазилева — чтобы путем вымогательства получить официальное разрешение для утилизации ядовитых отходов в Украине.
    Теперь задача героя — доставить Валентину через Европу в Одессу.
    Чтобы обеспечить выполнение задания, Джонсон одевает Фрэнку и Валентине электронные браслеты, которые могут взорваться, если их обладатели удаляются на 20 метров от автомобиля.
    Доп. информация: Различия BD изданий - разное наполнение кадра - 16:9 (1.78:1) -> http://screenshotcomparison.com/comparison/116488
    Фильмы в Fullscreen (4:3) и Open Matte (16:9) форматах
    Сэмпл: http://multi-up.com/1167087
    Качество видео: HDRip-AVC [Transporter.3.2008.OPEN.MATTE.1080p.BluRay.x264-FLAME]
    Формат видео: MKV
    Видео: MPEG-4 AVC/H.264 / 2064 kbps / 1024x576 / 23.976 fps
    Аудио: DUB (Rus) / AC3 / 6 ch / 384 kbps / 48 kHz
    Аудио 2: DVO Инис (Rus) / AC3 / 2 ch / 192 kbps / 48 kHz
    Аудио 2: Original (Eng) / AC3 / 6 ch / 384 kbps / 48 kHz
    Аудио 3: DVO Гланц и Королёва (Rus) / AC3 / 6 ch / 448 kbps / 48 kHz - отдельно
    Аудио 4: AVO Гаврилов (Rus) / AC3 / 6 ch / 448 kbps / 48 kHz - отдельно
    Аудио 3: AVO Немахов (Rus) / AC3 / 6 ch / 448 kbps / 48 kHz - отдельно
    Формат субтитров: softsub (SRT)
    Доп. информация о субтитрах: русские (full), английские (full)
    #Сохранены оригинальные чаптеры как на Blu-ray

    Log

    x264 [info]: frame I:1549 Avg QP:19.00 size: 70513
    x264 [info]: frame P:41184 Avg QP:23.24 size: 19853
    x264 [info]: frame B:106267 Avg QP:25.59 size: 6329

    MediaInfo

    General
    Unique ID : 208182999864347157787247806747505011428 (0x9C9E965B98058F2FB4269675A1872AE4)
    Complete name : J:\Torrents\Готовые релизы\Перевозчик 3 (2008) HDRip-AVC [Open Matte]\Перевозчик 3 (2008) HDRip-AVC [Open Matte].mkv
    Format : Matroska
    Format version : Version 2
    File size : 2.19 GiB
    Duration : 1 h 43 min
    Overall bit rate : 3 021 kb/s
    Movie name : Перевозчик 3 / Transporter 3 (2008) [Open Matte]
    Encoded date : UTC 2017-09-04 02:36:09
    Writing application : mkvmerge v5.5.0 ('Healer') built on Apr 24 2012 23:47:03
    Writing library : libebml v1.2.3 + libmatroska v1.3.0
    Cover : Yes
    Attachments : cover.jpg
    Video
    ID : 1
    Format : AVC
    Format/Info : Advanced Video Codec
    Format profile : [email protected]
    Format settings, CABAC : Yes
    Format settings, ReFrames : 8 frames
    Codec ID : V_MPEG4/ISO/AVC
    Duration : 1 h 43 min
    Bit rate : 2 064 kb/s
    Width : 1 024 pixels
    Height : 576 pixels
    Display aspect ratio : 16:9
    Frame rate mode : Constant
    Frame rate : 23.976 (24000/1001) FPS
    Color space : YUV
    Chroma subsampling : 4:2:0
    Bit depth : 8 bits
    Scan type : Progressive
    Bits/(Pixel*Frame) : 0.146
    Stream size : 1.45 GiB (66%)
    Title : HDRip (AVC) / MPEG-4 AVC/H.264 / 2064 kbps / 1024x576 / 23.976 fps
    Writing library : x264 core 146 r2538 121396c
    Encoding settings : cabac=1 / ref=8 / deblock=1:0:0 / analyse=0x3:0x113 / me=umh / subme=10 / psy=1 / psy_rd=1.00:0.00 / mixed_ref=1 / me_range=32 / chroma_me=1 / trellis=2 / 8x8dct=1 / cqm=0 / deadzone=21,11 / fast_pskip=0 / chroma_qp_offset=-2 / threads=6 / lookahead_threads=1 / sliced_threads=0 / nr=0 / decimate=1 / interlaced=0 / bluray_compat=0 / constrained_intra=0 / bframes=9 / b_pyramid=2 / b_adapt=2 / b_bias=0 / direct=3 / weightb=1 / open_gop=0 / weightp=2 / keyint=250 / keyint_min=23 / scenecut=40 / intra_refresh=0 / rc_lookahead=50 / rc=2pass / mbtree=1 / bitrate=2064 / ratetol=1.0 / qcomp=0.60 / qpmin=0 / qpmax=69 / qpstep=4 / cplxblur=20.0 / qblur=0.5 / vbv_maxrate=14000 / vbv_bufsize=14000 / nal_hrd=none / filler=0 / ip_ratio=1.40 / aq=1:1.00
    Language : English
    Default : Yes
    Forced : Yes
    Audio #1
    ID : 2
    Format : AC-3
    Format/Info : Audio Coding 3
    Mode extension : CM (complete main)
    Format settings, Endianness : Big
    Codec ID : A_AC3
    Duration : 1 h 43 min
    Bit rate mode : Constant
    Bit rate : 384 kb/s
    Channel(s) : 6 channels
    Channel positions : Front: L C R, Side: L R, LFE
    Sampling rate : 48.0 kHz
    Frame rate : 31.250 FPS (1536 spf)
    Bit depth : 16 bits
    Compression mode : Lossy
    Stream size : 285 MiB (13%)
    Title : DUB (Rus) / AC3 / 6 ch / 384 kbps / 48 kHz
    Language : Russian
    Default : No
    Forced : Yes
    Audio #2
    ID : 3
    Format : AC-3
    Format/Info : Audio Coding 3
    Mode extension : CM (complete main)
    Format settings, Endianness : Big
    Codec ID : A_AC3
    Duration : 1 h 43 min
    Bit rate mode : Constant
    Bit rate : 192 kb/s
    Channel(s) : 2 channels
    Channel positions : Front: L R
    Sampling rate : 48.0 kHz
    Frame rate : 31.250 FPS (1536 spf)
    Bit depth : 16 bits
    Compression mode : Lossy
    Stream size : 142 MiB (6%)
    Title : DVO Инис (Rus) / AC3 / 2 ch / 192 kbps / 48 kHz
    Language : Russian
    Default : No
    Forced : No
    Audio #3
    ID : 4
    Format : AC-3
    Format/Info : Audio Coding 3
    Mode extension : CM (complete main)
    Format settings, Endianness : Big
    Codec ID : A_AC3
    Duration : 1 h 43 min
    Bit rate mode : Constant
    Bit rate : 384 kb/s
    Channel(s) : 6 channels
    Channel positions : Front: L C R, Side: L R, LFE
    Sampling rate : 48.0 kHz
    Frame rate : 31.250 FPS (1536 spf)
    Bit depth : 16 bits
    Compression mode : Lossy
    Stream size : 285 MiB (13%)
    Title : Original (Eng) / AC3 / 6 ch / 384 kbps / 48 kHz
    Language : English
    Default : Yes
    Forced : No
    Text #1
    ID : 5
    Format : UTF-8
    Codec ID : S_TEXT/UTF8
    Codec ID/Info : UTF-8 Plain Text
    Title : Full (Rus) / S_TEXT/UTF8
    Language : Russian
    Default : No
    Forced : No
    Text #2
    ID : 6
    Format : UTF-8
    Codec ID : S_TEXT/UTF8
    Codec ID/Info : UTF-8 Plain Text
    Title : Full (Eng) / S_TEXT/UTF8
    Language : English
    Default : No
    Forced : No
    Menu
    00:00:00.000 : :
    00:07:42.002 : :
    00:14:16.647 : :
    00:16:42.710 : :
    00:21:40.423 : :
    00:30:29.160 : :
    00:34:47.001 : :
    00:41:24.398 : :
    00:48:34.786 : :
    00:56:32.054 : :
    01:06:19.684 : :
    01:10:42.238 : :
    01:16:45.141 : :
    01:21:55.911 : :
    01:29:29.988 : :
    01:35:16.210 : :

    Скриншот c названием фильма

    Скриншоты

  • Фильмы 2006-2010 > Мальчишник в Вегасе / The Hangover (Тодд Филлипс / Todd Phillips) [2009, США, комедия, WEB-DLRip] [Theatrical Cut] [Open Matte] Dub
  • 12-Сен-2017 08:48

    Ranku

    Мальчишник в Вегасе / The Hangover
    Страна: США
    Жанр: комедия
    Год выпуска: 2009
    Продолжительность: 01:39:42
    Перевод: Профессиональный (дублированный)
    Субтитры: нет
    Оригинальная аудиодорожка: нет-Режиссер:
    Тодд Филлипс / Todd Phillips-В ролях:
    Брэдли Купер, Эд Хелмс, Зак Галифианакис, Джастин Барта, Хизер Грэм, Джеффри Тэмбор, Саша Баррези, Кен Жонг, Рэйчел Харрис, Майк Эппс-Описание:
    Они мечтали устроить незабываемый мальчишник в Вегасе. Но теперь им действительно необходимо вспомнить, что именно происходило! Чей ребенок сидит в шкафу шикарного номера отеля? Как в ванную попал тигр? Почему у одного из них нет зуба? И, самое главное, куда делся жених?!
    То, что парни вытворяли на вечеринке, не идет ни в какое сравнение с тем, что им придется сделать на трезвую голову, когда они будут шаг за шагом восстанавливать события прошлой ночи, каждый раз — новая зацепка.-Качество видео: WEB-DLRip
    Формат видео: AVI
    Видео: 720x400 (1.80:1), 23.976 fps, XviD build 73 ~1697 kbps avg, 0.25 bit/pixel
    Аудио: 48 kHz, AC3 Dolby Digital, 3/2 (L,C,R,l,r) + LFE ch, ~384 kbps-Скачать сэмпл-

    BDRip vs Open Matte



    MediaInfo

    Format                      : AVI
    Format/Info                 : Audio Video Interleave
    File size                   : 1.46 GiB
    Duration                    : 1 h 39 min
    Overall bit rate            : 2 091 kb/s
    Writing application         : VirtualDubMod 1.5.10.3 | www.virtualdub-fr.org || (build 2550/release)
    Writing library             : VirtualDubMod build 2550/release
    Video
    ID                          : 0
    Format                      : MPEG-4 Visual
    Format profile              : Advanced [email protected]
    Format settings, BVOP       : 1
    Format settings, QPel       : No
    Format settings, GMC        : No warppoints
    Format settings, Matrix     : Custom
    Codec ID                    : XVID
    Codec ID/Hint               : XviD
    Duration                    : 1 h 39 min
    Bit rate                    : 1 698 kb/s
    Width                       : 720 pixels
    Height                      : 400 pixels
    Display aspect ratio        : 16:9
    Frame rate                  : 23.976 (24000/1001) FPS
    Color space                 : YUV
    Chroma subsampling          : 4:2:0
    Bit depth                   : 8 bits
    Scan type                   : Progressive
    Compression mode            : Lossy
    Bits/(Pixel*Frame)          : 0.246
    Stream size                 : 1.18 GiB (81%)
    Writing library             : XviD 73
    Audio
    ID                          : 1
    Format                      : AC-3
    Format/Info                 : Audio Coding 3
    Format settings, Endianness : Big
    Codec ID                    : 2000
    Duration                    : 1 h 39 min
    Bit rate mode               : Constant
    Bit rate                    : 384 kb/s
    Channel(s)                  : 6 channels
    Channel positions           : Front: L C R, Side: L R, LFE
    Sampling rate               : 48.0 kHz
    Frame rate                  : 31.250 FPS (1536 spf)
    Bit depth                   : 16 bits
    Compression mode            : Lossy
    Stream size                 : 274 MiB (18%)
    Alignment                   : Split accross interleaves
    Interleave, duration        : 42  ms (1.00 video frame)
    Interleave, preload duratio : 500  ms
    Service kind                : Complete Main

    Скриншоты

Sitemap