Поиск Результатов поиска: 500

  • Короткометражки > Хозяин в доме / Man of the House (Сантьяго С. Санчез / Santiago S. Sanchez) [2015, Великобритания, драма, короткометражный, WEB-DLRip-AVC] VO + Sub Rus + Original Eng
  • 12-Сен-2017 08:52

    Ranku

    Хозяин в доме / Man of the House
    Страна: Великобритания
    Жанр: драма, короткометражный
    Год выпуска: 2015
    Продолжительность: 00:16:29
    Перевод: Одноголосый закадровый
    Субтитры: русские
    Оригинальная аудиодорожка: английский
    Режиссер: Сантьяго С. Санчез / Santiago S. Sanchez
    В ролях: Соломон Уокер / Solomon Walker, Джона Стивенсон / Jonah Stevenson, Шари Фокс / Shari Fox, Кэтрин Степиен / Catherine Stepien
    Описание: Зарисовка об утрате, одиночестве, грусти и обретаемой в невинности силе.
    Сэмпл: http://multi-up.com/1167076
    Качество видео: WEB-DLRip-AVC
    Формат видео: MKV
    Видео: AVC at 1576 Кбит/сек : 1280 x 688 (1.860) at 25.000 fps
    Аудио 1: AAC at 161 Кбит/сек : 2 канала, 96,0 КГц / 48,0 КГц Language : ru
    Аудио 2: AAC at 201 Кбит/сек : 2 канала, 48,0 КГц Language : en
    Формат субтитров: prerendered (IDX+SUB)
    Доп. информация о субтитрах: Русские отключаемые (vlad555)

    MediaInfo

    Общее
    Уникальный идентификатор : 198075774232772245353927239736395357510 (0x950401A90493C2E0ACFDAC0FC97CDD46)
    Полное имя : F:\С моей озвучкой\Хозяин в доме.mkv
    Формат : Matroska
    Версия формата : Version 4 / Version 2
    Размер файла : 226 Мбайт
    Продолжительность : 16 м. 29 с.
    Общий поток : 1915 Кбит/сек
    Дата кодирования : UTC 2017-09-03 21:55:03
    Программа кодирования : mkvmerge v7.9.0 ('Birds') 64bit
    Библиотека кодирования : libebml v1.3.1 + libmatroska v1.4.2 / Lavf57.25.100
    Видео
    Идентификатор : 1
    Формат : AVC
    Формат/Информация : Advanced Video Codec
    Профиль формата : [email protected]
    Параметр CABAC формата : Нет
    Параметр RefFrames формата : 1 кадр
    Идентификатор кодека : V_MPEG4/ISO/AVC
    Продолжительность : 16 м. 29 с.
    Битрейт : 1576 Кбит/сек
    Ширина : 1280 пикселей
    Высота : 688 пикселей
    Соотношение сторон : 1,85:1
    Режим частоты кадров : Постоянный
    Частота кадров : 25,000 кадров/сек
    Цветовое пространство : YUV
    Субдискретизация насыщенности : 4:2:0
    Битовая глубина : 8 бит
    Тип развёртки : Прогрессивная
    Бит/(Пиксели*Кадры) : 0.072
    Размер потока : 183 Мбайт (81%)
    Библиотека кодирования : x264 core 148 r2643 5c65704
    Настройки программы : cabac=0 / ref=1 / deblock=1:0:0 / analyse=0x1:0x111 / me=hex / subme=7 / psy=1 / psy_rd=1.00:0.00 / mixed_ref=0 / me_range=16 / chroma_me=1 / trellis=1 / 8x8dct=0 / cqm=0 / deadzone=21,11 / fast_pskip=1 / chroma_qp_offset=-2 / threads=9 / lookahead_threads=1 / sliced_threads=0 / nr=0 / decimate=1 / interlaced=0 / bluray_compat=0 / constrained_intra=0 / bframes=0 / weightp=0 / keyint=250 / keyint_min=25 / scenecut=40 / intra_refresh=0 / rc_lookahead=40 / rc=abr / mbtree=1 / bitrate=1576 / ratetol=1.0 / qcomp=0.60 / qpmin=10 / qpmax=51 / qpstep=4 / ip_ratio=1.41 / aq=1:1.00
    Default : Да
    Forced : Нет
    Аудио #1
    Идентификатор : 2
    Формат : AAC
    Формат/Информация : Advanced Audio Codec
    Профиль формата : HE-AAC / LC
    Идентификатор кодека : A_AAC
    Продолжительность : 16 м. 29 с.
    Битрейт : 161 Кбит/сек
    Каналы : 2 канала
    Расположение каналов : Front: L R
    Частота : 96,0 КГц / 48,0 КГц
    Частота кадров : 46,875 кадров/сек (1024 SPF)
    Метод сжатия : С потерями
    Задержка видео : -21 мс.
    Размер потока : 19,1 Мбайт (8%)
    Язык : Russian
    Default : Нет
    Forced : Нет
    Аудио #2
    Идентификатор : 3
    Формат : AAC
    Формат/Информация : Advanced Audio Codec
    Профиль формата : LC
    Идентификатор кодека : A_AAC
    Продолжительность : 16 м. 29 с.
    Битрейт : 201 Кбит/сек
    Каналы : 2 канала
    Расположение каналов : Front: L R
    Частота : 48,0 КГц
    Частота кадров : 46,875 кадров/сек (1024 SPF)
    Метод сжатия : С потерями
    Задержка видео : -21 мс.
    Размер потока : 23,7 Мбайт (10%)
    Библиотека кодирования : Lavc57.24.102 aac
    Язык : English
    Default : Нет
    Forced : Нет
    Текст
    Идентификатор : 4
    Формат : UTF-8
    Идентификатор кодека : S_TEXT/UTF8
    Идентификатор кодека/Информация : UTF-8 Plain Text
    Продолжительность : 15 м. 28 с.
    Битрейт : 7 бит/сек
    ElementCount : 24
    Размер потока : 829 байт (0%)
    Язык : Russian
    Default : Да
    Forced : Нет

    Скриншоты

  • Короткометражки > Мальчик / Boy (Топаз Адизес / Topaz Adizes) [2011, США, драма, HDRip] VO + Sub Rus + Original Eng
  • 12-Сен-2017 08:52

    Ranku

    Мальчик / Boy
    Страна: США
    Жанр: драма
    Год выпуска: 2011
    Продолжительность: 00:09:32
    Перевод: Одноголосый закадровый
    Субтитры: русские
    Оригинальная аудиодорожка: английский
    Режиссер: Топаз Адизес / Topaz Adizes
    В ролях: Финн Грин / Finn Greene, Джефф Уэллс / Jeff Wells
    Описание: Посвящение во взрослую жизнь навсегда изменит 10-летнего мальчика.
    Сэмпл: http://multi-up.com/1167068
    Качество видео: HDRip
    Формат видео: AVI
    Видео: 1264x528 (2.39:1), 23.976 fps, XviD MPEG-4 ~1899 kbps avg, 0.12 bit/pixel
    Аудио 1: 48 kHz, MPEG Layer 3, 2 ch, ~128.00 kbps avg(Русский)
    Аудио 2: 48 kHz, MPEG Layer 3, 2 ch, ~128.00 kbps avg(Английский)
    Формат субтитров: softsub (SRT)
    Доп. информация о субтитрах: Русские внешние (raspisuha)

    MediaInfo

    Общее
    Полное имя : F:\С моей озвучкой\Мальчик\Boy (2011) HDRip.avi
    Формат : AVI
    Формат/Информация : Audio Video Interleave
    Размер файла : 148 Мбайт
    Продолжительность : 9 м. 30 с.
    Общий поток : 2171 Кбит/сек
    Программа кодирования : VirtualDubModRus 1.5.10.2 (build 2542/release)
    Библиотека кодирования : VirtualDubMod build 2542/release
    Видео
    Идентификатор : 0
    Формат : MPEG-4 Visual
    Профиль формата : Advanced [email protected]
    Параметр BVOP формата : 2
    Параметр QPel формата : Нет
    Параметр GMC формата : Без точки перехода
    Параметр матрицы формата : Default (H.263)
    Режим смешивания : Сжатый битовый поток
    Идентификатор кодека : XVID
    Идентификатор кодека/Подсказка : XviD
    Продолжительность : 9 м. 30 с.
    Битрейт : 1901 Кбит/сек
    Ширина : 1264 пикселя
    Высота : 528 пикселей
    Соотношение сторон : 2,40:1
    Частота кадров : 23,976 (24000/1001) кадра/сек
    Цветовое пространство : YUV
    Субдискретизация насыщенности : 4:2:0
    Битовая глубина : 8 бит
    Тип развёртки : Прогрессивная
    Метод сжатия : С потерями
    Бит/(Пиксели*Кадры) : 0.119
    Размер потока : 129 Мбайт (88%)
    Библиотека кодирования : XviD 1.2.1 (UTC 2008-12-04)
    Аудио #1
    Идентификатор : 1
    Формат : MPEG Audio
    Версия формата : Version 1
    Профиль формата : Layer 3
    Режим : Joint stereo
    Расширение режима : MS Stereo
    Идентификатор кодека : 55
    Идентификатор кодека/Подсказка : MP3
    Продолжительность : 9 м. 30 с.
    Вид битрейта : Постоянный
    Битрейт : 128 Кбит/сек
    Каналы : 2 канала
    Частота : 48,0 КГц
    Метод сжатия : С потерями
    Размер потока : 8,70 Мбайт (6%)
    Выравнивание : Соединение по промежуткам
    Продолжительность промежутка : 42 мс. (1,00 видеокадр)
    Время предзагрузки промежутка : 504 мс.
    Библиотека кодирования : LAME3.96
    Аудио #2
    Идентификатор : 2
    Формат : MPEG Audio
    Версия формата : Version 1
    Профиль формата : Layer 3
    Режим : Joint stereo
    Расширение режима : MS Stereo
    Идентификатор кодека : 55
    Идентификатор кодека/Подсказка : MP3
    Продолжительность : 9 м. 30 с.
    Вид битрейта : Постоянный
    Битрейт : 128 Кбит/сек
    Каналы : 2 канала
    Частота : 48,0 КГц
    Метод сжатия : С потерями
    Размер потока : 8,71 Мбайт (6%)
    Выравнивание : Соединение по промежуткам
    Продолжительность промежутка : 42 мс. (1,00 видеокадр)
    Время предзагрузки промежутка : 504 мс.
    Библиотека кодирования : LAME3.98

    Скриншоты

  • Короткометражки > Хороший звук автомата / God maskingeværlyd / Good Machine Gun Sound (Трулс Кране Меби / Truls Krane Meby) [2014, Норвегия, драма, короткометражный, WEB-DLRip-AVC] VO + Sub Rus + Original Nor
  • 12-Сен-2017 08:50

    Ranku

    Хороший звук автомата / God maskingeværlyd / Good Machine Gun Sound
    Страна: Норвегия
    Жанр: драма, короткометражный
    Год выпуска: 2014
    Продолжительность: 00:14:44
    Перевод: Одноголосый закадровый
    Субтитры: русские
    Оригинальная аудиодорожка: норвежский
    Режиссер: Трулс Кране Меби / Truls Krane Meby
    В ролях: Ерленд Антононсен Мелёй / Erlend Antonsen Meloy, Ермунд Хермансен / Jermund Hermansen, Мария Бок/ Maria Bock, Клаус Бергли / Klaus L. Bergli
    Описание: Восьмилетний Арвид и его младший брат впервые встречаются лицом к лицу со смертью...
    Сэмпл: http://multi-up.com/1167091
    Качество видео: WEB-DLRip-AVC
    Формат видео: MKV
    Видео: AVC at 1399 Кбит/сек : 1280 x 480 (2.667) at 25.000 fps
    Аудио 1: AAC at 152 Кбит/сек : 2 канала, 96,0 КГц / 48,0 КГц Language : ru
    Аудио 2: AAC at 147 Кбит/сек : 2 канала, 48,0 КГц норвежский
    Формат субтитров: prerendered (IDX+SUB)
    Доп. информация о субтитрах: Русские отключаемые (vlad555), английские неотключаемые

    MediaInfo

    Общее
    Уникальный идентификатор : 214086902913080487782799108649463601003 (0xA10FA34072967B9A9B91E4DC4210576B)
    Полное имя : F:\С моей озвучкой\Хороший звук автомата.mkv
    Формат : Matroska
    Версия формата : Version 4 / Version 2
    Размер файла : 179 Мбайт
    Продолжительность : 14 м. 44 с.
    Общий поток : 1701 Кбит/сек
    Дата кодирования : UTC 2017-09-03 22:00:48
    Программа кодирования : mkvmerge v7.9.0 ('Birds') 64bit
    Библиотека кодирования : libebml v1.3.1 + libmatroska v1.4.2
    Видео
    Идентификатор : 1
    Формат : AVC
    Формат/Информация : Advanced Video Codec
    Профиль формата : [email protected]
    Параметр CABAC формата : Да
    Параметр RefFrames формата : 5 кадров
    Идентификатор кодека : V_MPEG4/ISO/AVC
    Продолжительность : 14 м. 44 с.
    Битрейт : 1399 Кбит/сек
    Ширина : 1280 пикселей
    Высота : 480 пикселей
    Соотношение сторон : 2,667
    Режим частоты кадров : Постоянный
    Частота кадров : 25,000 кадров/сек
    Цветовое пространство : YUV
    Субдискретизация насыщенности : 4:2:0
    Битовая глубина : 8 бит
    Тип развёртки : Прогрессивная
    Бит/(Пиксели*Кадры) : 0.091
    Размер потока : 148 Мбайт (82%)
    Библиотека кодирования : x264 core 148 r11 a01e339
    Настройки программы : cabac=1 / ref=5 / deblock=1:0:0 / analyse=0x3:0x113 / me=umh / subme=8 / psy=1 / psy_rd=1.00:0.00 / mixed_ref=1 / me_range=16 / chroma_me=1 / trellis=1 / 8x8dct=1 / cqm=0 / deadzone=21,11 / fast_pskip=1 / chroma_qp_offset=-2 / threads=15 / lookahead_threads=2 / sliced_threads=0 / nr=0 / decimate=1 / interlaced=0 / bluray_compat=0 / stitchable=1 / constrained_intra=0 / bframes=3 / b_pyramid=2 / b_adapt=2 / b_bias=0 / direct=3 / weightb=1 / open_gop=0 / weightp=2 / keyint=infinite / keyint_min=25 / scenecut=40 / intra_refresh=0 / rc_lookahead=50 / rc=crf / mbtree=1 / crf=20.0 / qcomp=0.60 / qpmin=5 / qpmax=69 / qpstep=4 / vbv_maxrate=2750 / vbv_bufsize=7500 / crf_max=0.0 / nal_hrd=none / filler=0 / ip_ratio=1.40 / aq=1:1.00
    Default : Да
    Forced : Нет
    Цветовой диапазон : Limited
    Основные цвета : BT.709
    Характеристики трансфера : BT.709
    Коэффициенты матрицы : BT.709
    Аудио #1
    Идентификатор : 2
    Формат : AAC
    Формат/Информация : Advanced Audio Codec
    Профиль формата : HE-AAC / LC
    Идентификатор кодека : A_AAC
    Продолжительность : 14 м. 44 с.
    Битрейт : 152 Кбит/сек
    Каналы : 2 канала
    Расположение каналов : Front: L R
    Частота : 96,0 КГц / 48,0 КГц
    Частота кадров : 46,875 кадров/сек (1024 SPF)
    Метод сжатия : С потерями
    Размер потока : 16,0 Мбайт (9%)
    Язык : Russian
    Default : Да
    Forced : Нет
    Аудио #2
    Идентификатор : 3
    Формат : AAC
    Формат/Информация : Advanced Audio Codec
    Профиль формата : LC
    Идентификатор кодека : A_AAC
    Продолжительность : 14 м. 44 с.
    Битрейт : 147 Кбит/сек
    Каналы : 2 канала
    Расположение каналов : Front: L R
    Частота : 48,0 КГц
    Частота кадров : 46,875 кадров/сек (1024 SPF)
    Метод сжатия : С потерями
    Размер потока : 15,5 Мбайт (9%)
    Default : Нет
    Forced : Нет
    Текст
    Идентификатор : 4
    Формат : UTF-8
    Идентификатор кодека : S_TEXT/UTF8
    Идентификатор кодека/Информация : UTF-8 Plain Text
    Продолжительность : 13 м. 5 с.
    Битрейт : 40 бит/сек
    ElementCount : 92
    Размер потока : 3,88 Кбайт (0%)
    Язык : Russian
    Default : Да
    Forced : Нет

    Скриншоты

  • Короткометражки > Гипс / Gips (Йорун Хубен / Jeroen Houben) [2015, Нидерланды, комедия, короткометражный, WEB-DLRip-AVC] VO + Sub Rus + Original Dut
  • 12-Сен-2017 08:50

    Ranku

    Гипс / Gips
    Страна: Нидерланды
    Жанр: комедия, короткометражный
    Год выпуска: 2015
    Продолжительность: 00:10:47
    Перевод: Одноголосый закадровый
    Субтитры: русские
    Оригинальная аудиодорожка: нидерландский
    Режиссер: Йорун Хубен / Jeroen Houben
    В ролях: Роэн Тиммерманс / Rohan Timmermans, Richelle Lantinga, Хуб Смит / Huub Smit, Лотти Хеллингман / Lottie Hellingman, Ewout Eggink, Loes Schnepper, Martijn Hillenius, Ruben Jentellet, Clarisse Montenon, Дэнис Мишель / Denis Michel
    Описание: Рассказ о Пелле, 12-летнем мальчике, который перед отъездом с родителями в отпуск ломает руку. Тем не менее, рука в гипсе не помешает ему завести настоящий летний роман.
    Сэмпл: http://multi-up.com/1167077
    Качество видео: WEB-DLRip-AVC
    Формат видео: MKV
    Видео: AVC at 2312 Кбит/сек : 1366 x 572 (2.388) at 25.000 fps
    Аудио 1: AAC at 163 Кбит/сек : 2 канала, 96,0 КГц / 48,0 КГц Language : ru
    Аудио 2: AAC at 256 Кбит/сек : 2 канала, 48,0 КГц
    Формат субтитров: prerendered (IDX+SUB)
    Доп. информация о субтитрах: Русские отключаемые (Евгений Венгеровский aka barbos), английские встроенные неотключаемые

    MediaInfo

    Общее
    Уникальный идентификатор : 249450608283067810038217777205726412883 (0xBBAA708A87A163E6B342D5F5D5980053)
    Полное имя : F:\С моей озвучкой\Гипс.mkv
    Формат : Matroska
    Версия формата : Version 4 / Version 2
    Размер файла : 211 Мбайт
    Продолжительность : 10 м. 47 с.
    Общий поток : 2734 Кбит/сек
    Дата кодирования : UTC 2017-09-03 21:19:55
    Программа кодирования : mkvmerge v7.9.0 ('Birds') 64bit
    Библиотека кодирования : libebml v1.3.1 + libmatroska v1.4.2
    Видео
    Идентификатор : 1
    Формат : AVC
    Формат/Информация : Advanced Video Codec
    Профиль формата : [email protected]
    Параметр CABAC формата : Да
    Параметр RefFrames формата : 5 кадров
    Идентификатор кодека : V_MPEG4/ISO/AVC
    Продолжительность : 10 м. 47 с.
    Битрейт : 2312 Кбит/сек
    Ширина : 1366 пикселей
    Высота : 572 пикселя
    Соотношение сторон : 2,40:1
    Режим частоты кадров : Постоянный
    Частота кадров : 25,000 кадров/сек
    Цветовое пространство : YUV
    Субдискретизация насыщенности : 4:2:0
    Битовая глубина : 8 бит
    Тип развёртки : Прогрессивная
    Бит/(Пиксели*Кадры) : 0.118
    Размер потока : 179 Мбайт (85%)
    Библиотека кодирования : x264 core 148 r10 3f5ed56
    Настройки программы : cabac=1 / ref=5 / deblock=1:0:0 / analyse=0x3:0x113 / me=umh / subme=8 / psy=1 / psy_rd=1.00:0.00 / mixed_ref=1 / me_range=16 / chroma_me=1 / trellis=1 / 8x8dct=1 / cqm=0 / deadzone=21,11 / fast_pskip=1 / chroma_qp_offset=-2 / threads=18 / lookahead_threads=3 / sliced_threads=0 / nr=0 / decimate=1 / interlaced=0 / bluray_compat=0 / stitchable=1 / constrained_intra=0 / bframes=3 / b_pyramid=2 / b_adapt=2 / b_bias=0 / direct=3 / weightb=1 / open_gop=0 / weightp=2 / keyint=infinite / keyint_min=25 / scenecut=40 / intra_refresh=0 / rc_lookahead=50 / rc=crf / mbtree=1 / crf=20.0 / qcomp=0.60 / qpmin=5 / qpmax=69 / qpstep=4 / vbv_maxrate=2750 / vbv_bufsize=7500 / crf_max=0.0 / nal_hrd=none / filler=0 / ip_ratio=1.40 / aq=1:1.00
    Default : Да
    Forced : Нет
    Цветовой диапазон : Limited
    Основные цвета : BT.709
    Характеристики трансфера : BT.709
    Коэффициенты матрицы : BT.709
    Аудио #1
    Идентификатор : 2
    Формат : AAC
    Формат/Информация : Advanced Audio Codec
    Профиль формата : HE-AAC / LC
    Идентификатор кодека : A_AAC
    Продолжительность : 10 м. 47 с.
    Битрейт : 163 Кбит/сек
    Каналы : 2 канала
    Расположение каналов : Front: L R
    Частота : 96,0 КГц / 48,0 КГц
    Частота кадров : 46,875 кадров/сек (1024 SPF)
    Метод сжатия : С потерями
    Размер потока : 12,6 Мбайт (6%)
    Язык : Russian
    Default : Да
    Forced : Нет
    Аудио #2
    Идентификатор : 3
    Формат : AAC
    Формат/Информация : Advanced Audio Codec
    Профиль формата : LC
    Идентификатор кодека : A_AAC
    Продолжительность : 10 м. 47 с.
    Битрейт : 256 Кбит/сек
    Каналы : 2 канала
    Расположение каналов : Front: L R
    Частота : 48,0 КГц
    Частота кадров : 46,875 кадров/сек (1024 SPF)
    Метод сжатия : С потерями
    Размер потока : 19,8 Мбайт (9%)
    Default : Нет
    Forced : Нет
    Текст
    Идентификатор : 4
    Формат : UTF-8
    Идентификатор кодека : S_TEXT/UTF8
    Идентификатор кодека/Информация : UTF-8 Plain Text
    Продолжительность : 9 м. 35 с.
    Битрейт : 55 бит/сек
    ElementCount : 58
    Размер потока : 3,89 Кбайт (0%)
    Язык : Russian
    Default : Да
    Forced : Нет

    Скриншоты

  • Короткометражки > Старуха / La Vieja (Раш Смит / Rush Smith) [2016, Испания, ужасы, артхаус, короткометражный, WEB-DLRip-AVC] VO + Sub Rus + Original Spa
  • 12-Сен-2017 08:50

    Ranku

    Старуха / La Vieja
    Страна: Испания
    Жанр: ужасы, артхаус, короткометражный
    Год выпуска: 2016
    Продолжительность: 00:09:34
    Перевод: Одноголосый закадровый
    Субтитры: русские
    Оригинальная аудиодорожка: испанский
    Режиссер: Раш Смит / Rush Smith
    В ролях: Уго Арбуэс / Hugo Arbués / Hugo Arbues, Mirta Damiolini, Alicia Fernandez
    Описание: На основе книги "Ребенок, который забыл лечь спать". Страх маленького Поля превратится в настоящий ужас, когда он увидит жестокую старуху из унитаза. Возможно, в следующий раз подумаете дважды, прежде чем огорчать своих родителей...
    Сэмпл: http://multi-up.com/1167067
    Качество видео: WEB-DLRip-AVC
    Формат видео: MKV
    Видео: AVC at 1024 Кбит/сек : 1280 x 540 (2.370) at 25.000 fps
    Аудио 1: AAC at 92,6 Кбит/сек : 2 канала, 88,2 КГц / 44,1 КГц Language : ru
    Аудио 2: AAC at 96,0 Кбит/сек : 2 канала, 44,1 КГц Language : es
    Формат субтитров: prerendered (IDX+SUB)
    Доп. информация о субтитрах: Русские отключаемые (abc)

    MediaInfo

    Общее
    Уникальный идентификатор : 254442492282573889890605836640842443987 (0xBF6BD76C9E9A7CB0A626303D019C6CD3)
    Полное имя : F:\С моей озвучкой\Старуха.mkv
    Формат : Matroska
    Версия формата : Version 4 / Version 2
    Размер файла : 80,2 Мбайт
    Продолжительность : 9 м. 34 с.
    Общий поток : 1171 Кбит/сек
    Дата кодирования : UTC 2017-09-03 21:49:00
    Программа кодирования : mkvmerge v7.9.0 ('Birds') 64bit
    Библиотека кодирования : libebml v1.3.1 + libmatroska v1.4.2 / Lavf57.25.100
    Видео
    Идентификатор : 1
    Формат : AVC
    Формат/Информация : Advanced Video Codec
    Профиль формата : [email protected]
    Параметр CABAC формата : Нет
    Параметр RefFrames формата : 1 кадр
    Идентификатор кодека : V_MPEG4/ISO/AVC
    Продолжительность : 9 м. 34 с.
    Битрейт : 1024 Кбит/сек
    Ширина : 1280 пикселей
    Высота : 540 пикселей
    Соотношение сторон : 2,40:1
    Режим частоты кадров : Постоянный
    Частота кадров : 25,000 кадров/сек
    Цветовое пространство : YUV
    Субдискретизация насыщенности : 4:2:0
    Битовая глубина : 8 бит
    Тип развёртки : Прогрессивная
    Бит/(Пиксели*Кадры) : 0.059
    Размер потока : 67,1 Мбайт (84%)
    Заголовок : ISO Media file produced by Google Inc.
    Библиотека кодирования : x264 core 148 r2643 5c65704
    Настройки программы : cabac=0 / ref=1 / deblock=1:0:0 / analyse=0x1:0x111 / me=hex / subme=7 / psy=1 / psy_rd=1.00:0.00 / mixed_ref=0 / me_range=16 / chroma_me=1 / trellis=1 / 8x8dct=0 / cqm=0 / deadzone=21,11 / fast_pskip=1 / chroma_qp_offset=-2 / threads=9 / lookahead_threads=1 / sliced_threads=0 / nr=0 / decimate=1 / interlaced=0 / bluray_compat=0 / constrained_intra=0 / bframes=0 / weightp=0 / keyint=250 / keyint_min=25 / scenecut=40 / intra_refresh=0 / rc_lookahead=40 / rc=abr / mbtree=1 / bitrate=1024 / ratetol=1.0 / qcomp=0.60 / qpmin=10 / qpmax=51 / qpstep=4 / ip_ratio=1.41 / aq=1:1.00
    Default : Да
    Forced : Нет
    Аудио #1
    Идентификатор : 2
    Формат : AAC
    Формат/Информация : Advanced Audio Codec
    Профиль формата : HE-AAC / LC
    Идентификатор кодека : A_AAC
    Продолжительность : 9 м. 33 с.
    Битрейт : 92,6 Кбит/сек
    Каналы : 2 канала
    Расположение каналов : Front: L R
    Частота : 88,2 КГц / 44,1 КГц
    Частота кадров : 43,066 кадра/сек (1024 SPF)
    Метод сжатия : С потерями
    Задержка видео : -23 мс.
    Размер потока : 6,34 Мбайт (8%)
    Язык : Russian
    Default : Нет
    Forced : Нет
    Аудио #2
    Идентификатор : 3
    Формат : AAC
    Формат/Информация : Advanced Audio Codec
    Профиль формата : LC
    Идентификатор кодека : A_AAC
    Продолжительность : 9 м. 34 с.
    Битрейт : 96,0 Кбит/сек
    Каналы : 2 канала
    Расположение каналов : Front: L R
    Частота : 44,1 КГц
    Частота кадров : 43,066 кадра/сек (1024 SPF)
    Метод сжатия : С потерями
    Задержка видео : -23 мс.
    Размер потока : 6,49 Мбайт (8%)
    Заголовок : ISO Media file produced by Google Inc.
    Библиотека кодирования : Lavc57.24.102 aac
    Язык : Spanish
    Default : Нет
    Forced : Нет
    Текст
    Идентификатор : 4
    Формат : UTF-8
    Идентификатор кодека : S_TEXT/UTF8
    Идентификатор кодека/Информация : UTF-8 Plain Text
    Продолжительность : 8 м. 24 с.
    Битрейт : 52 бит/сек
    ElementCount : 51
    Размер потока : 3,22 Кбайт (0%)
    Язык : Russian
    Default : Да
    Forced : Нет

    Скриншоты

  • Короткометражки > Маленькие бойцы / Little Fighters (Ивана Лалович / Ivana Lalovic) [2010, Босния и Герцеговина, Швейцария, драма, короткометражный, WEB-DLRip-AVC] VO + Sub Rus
  • 12-Сен-2017 08:49

    Ranku

    Маленькие бойцы / Little Fighters
    Страна: Босния и Герцеговина, Швейцария
    Жанр: драма, короткометражный
    Год выпуска: 2010
    Продолжительность: 00:15:56
    Перевод: Одноголосый закадровый
    Субтитры: русские
    Оригинальная аудиодорожка: боснийский
    Режиссер: Ивана Лалович / Ivana Lalovic
    В ролях: Давид Хаджич / David Hadzic, Edis Livnjak, Enes Salkovic
    Описание: Детство Харуна и его сестры Селмы проходит в охваченном войной регионе, от ужаса которой они пытаются спрятаться в вымышленном мире комиксов...
    Сэмпл: http://multi-up.com/1167074
    Качество видео: WEB-DLRip-AVC
    Формат видео: MKV
    Видео: AVC at 342 Кбит/сек : 640 x 360 (1.778) at 25.000 fps
    Аудио 1: AAC at 72,0 Кбит/сек : 2 канала, 88,2 КГц / 44,1 КГц Language : ru
    Аудио 2: AAC at 83,7 Кбит/сек : 2 канала, 44,1 КГц боснийский
    Формат субтитров: prerendered (IDX+SUB)
    Доп. информация о субтитрах: Русские отключаемые (vlad555), английские встроенные неотключаемые

    MediaInfo

    Общее
    Уникальный идентификатор : 170448727300160186690818011812365699805 (0x803B3B14FD067969A9CBCDA5F5E98ADD)
    Полное имя : F:\С моей озвучкой\Маленькие бойцы.mkv
    Формат : Matroska
    Версия формата : Version 4 / Version 2
    Размер файла : 75,1 Мбайт
    Продолжительность : 21 м. 0 с.
    Общий поток : 500 Кбит/сек
    Дата кодирования : UTC 2017-09-03 21:25:48
    Программа кодирования : mkvmerge v7.9.0 ('Birds') 64bit
    Библиотека кодирования : libebml v1.3.1 + libmatroska v1.4.2
    Видео
    Идентификатор : 1
    Формат : AVC
    Формат/Информация : Advanced Video Codec
    Профиль формата : [email protected]
    Параметр CABAC формата : Да
    Параметр RefFrames формата : 4 кадра
    Идентификатор кодека : V_MPEG4/ISO/AVC
    Продолжительность : 21 м. 0 с.
    Битрейт : 342 Кбит/сек
    Ширина : 640 пикселей
    Высота : 360 пикселей
    Соотношение сторон : 16:9
    Режим частоты кадров : Постоянный
    Частота кадров : 25,000 кадров/сек
    Цветовое пространство : YUV
    Субдискретизация насыщенности : 4:2:0
    Битовая глубина : 8 бит
    Тип развёртки : Прогрессивная
    Бит/(Пиксели*Кадры) : 0.059
    Размер потока : 51,4 Мбайт (68%)
    Библиотека кодирования : Vimeo Encoder
    Default : Да
    Forced : Нет
    Аудио #1
    Идентификатор : 2
    Формат : AAC
    Формат/Информация : Advanced Audio Codec
    Профиль формата : HE-AAC / LC
    Идентификатор кодека : A_AAC
    Продолжительность : 20 м. 59 с.
    Битрейт : 72,0 Кбит/сек
    Каналы : 2 канала
    Расположение каналов : Front: L R
    Частота : 88,2 КГц / 44,1 КГц
    Частота кадров : 43,066 кадра/сек (1024 SPF)
    Метод сжатия : С потерями
    Размер потока : 10,8 Мбайт (14%)
    Язык : Russian
    Default : Да
    Forced : Нет
    Аудио #2
    Идентификатор : 3
    Формат : AAC
    Формат/Информация : Advanced Audio Codec
    Профиль формата : LC
    Идентификатор кодека : A_AAC
    Продолжительность : 21 м. 0 с.
    Битрейт : 83,7 Кбит/сек
    Каналы : 2 канала
    Расположение каналов : Front: L R
    Частота : 44,1 КГц
    Частота кадров : 43,066 кадра/сек (1024 SPF)
    Метод сжатия : С потерями
    Размер потока : 12,6 Мбайт (17%)
    Default : Нет
    Forced : Нет
    Текст
    Идентификатор : 4
    Формат : UTF-8
    Идентификатор кодека : S_TEXT/UTF8
    Идентификатор кодека/Информация : UTF-8 Plain Text
    Продолжительность : 14 м. 25 с.
    Битрейт : 53 бит/сек
    ElementCount : 125
    Размер потока : 5,60 Кбайт (0%)
    Язык : Russian
    Default : Да
    Forced : Нет

    Скриншоты

  • Короткометражки > Z1 / Z1 (Габриэль Гочет / Gabriel Gauchet) [2013, Великобритания, короткометражный, триллер, WEB-DLRip-AVC] VO + Sub Rus + Original Eng
  • 12-Сен-2017 08:47

    Ranku

    Z1 / Z1
    Страна: Великобритания
    Жанр: короткометражный, триллер
    Год выпуска: 2013
    Продолжительность: 00:33:44
    Перевод: Одноголосый закадровый
    Субтитры: русские
    Оригинальная аудиодорожка: английский
    Режиссер: Габриэль Гочет / Gabriel Gauchet
    В ролях: Адам Томас Райт / Adam Thomas Wright, Стивен Макинтош / Steven Mackintosh, Кейт Харди / Kate Hardie
    Описание: Из за сложных взаимоотношений Гай и Рут живут раздельно и единственное, что их связывает - их десятилетний сын Макс. Ситуация выходит из-под контроля, когда Макс начинает странно себя вести...
    Сэмпл: http://multi-up.com/1167092
    Качество видео: WEB-DLRip-AVC
    Формат видео: MKV
    Видео: AVC at 512 Кбит/сек : 636 x 262 (2.427) at 24.000 fps
    Аудио 1: AAC at 125 Кбит/сек : 2 канала, 96,0 КГц / 48,0 КГц Language : ru
    Аудио 2: AAC at 128 Кбит/сек : 2 канала, 48,0 КГц Language : en
    Формат субтитров: prerendered (IDX+SUB)
    Доп. информация о субтитрах: Русские отключаемые (vlad555)

    MediaInfo

    Общее
    Уникальный идентификатор : 218606620301908161010376139842263485439 (0xA4761A860F07874098C688B9F4848BFF)
    Полное имя : F:\С моей озвучкой\Z1 (2013) (1).mkv
    Формат : Matroska
    Версия формата : Version 4 / Version 2
    Размер файла : 185 Мбайт
    Продолжительность : 33 м. 44 с.
    Общий поток : 765 Кбит/сек
    Дата кодирования : UTC 2017-09-03 21:11:33
    Программа кодирования : mkvmerge v7.9.0 ('Birds') 64bit
    Библиотека кодирования : libebml v1.3.1 + libmatroska v1.4.2 / Lavf57.25.100
    Видео
    Идентификатор : 1
    Формат : AVC
    Формат/Информация : Advanced Video Codec
    Профиль формата : [email protected]
    Параметр CABAC формата : Нет
    Параметр RefFrames формата : 1 кадр
    Идентификатор кодека : V_MPEG4/ISO/AVC
    Продолжительность : 33 м. 44 с.
    Битрейт : 512 Кбит/сек
    Ширина : 636 пикселей
    Высота : 262 пикселя
    Соотношение сторон : 2,40:1
    Режим частоты кадров : Постоянный
    Частота кадров : 24,000 кадра/сек
    Цветовое пространство : YUV
    Субдискретизация насыщенности : 4:2:0
    Битовая глубина : 8 бит
    Тип развёртки : Прогрессивная
    Бит/(Пиксели*Кадры) : 0.128
    Размер потока : 123 Мбайт (67%)
    Библиотека кодирования : x264 core 148 r2643 5c65704
    Настройки программы : cabac=0 / ref=1 / deblock=1:0:0 / analyse=0x1:0x111 / me=hex / subme=7 / psy=1 / psy_rd=1.00:0.00 / mixed_ref=0 / me_range=16 / chroma_me=1 / trellis=1 / 8x8dct=0 / cqm=0 / deadzone=21,11 / fast_pskip=1 / chroma_qp_offset=-2 / threads=8 / lookahead_threads=1 / sliced_threads=0 / nr=0 / decimate=1 / interlaced=0 / bluray_compat=0 / constrained_intra=0 / bframes=0 / weightp=0 / keyint=250 / keyint_min=25 / scenecut=40 / intra_refresh=0 / rc_lookahead=40 / rc=abr / mbtree=1 / bitrate=512 / ratetol=1.0 / qcomp=0.60 / qpmin=10 / qpmax=51 / qpstep=4 / ip_ratio=1.41 / aq=1:1.00
    Default : Да
    Forced : Нет
    Аудио #1
    Идентификатор : 2
    Формат : AAC
    Формат/Информация : Advanced Audio Codec
    Профиль формата : HE-AAC / LC
    Идентификатор кодека : A_AAC
    Продолжительность : 33 м. 44 с.
    Битрейт : 125 Кбит/сек
    Каналы : 2 канала
    Расположение каналов : Front: L R
    Частота : 96,0 КГц / 48,0 КГц
    Частота кадров : 46,875 кадров/сек (1024 SPF)
    Метод сжатия : С потерями
    Задержка видео : -21 мс.
    Размер потока : 30,1 Мбайт (16%)
    Язык : Russian
    Default : Нет
    Forced : Нет
    Аудио #2
    Идентификатор : 3
    Формат : AAC
    Формат/Информация : Advanced Audio Codec
    Профиль формата : LC
    Идентификатор кодека : A_AAC
    Продолжительность : 33 м. 44 с.
    Битрейт : 128 Кбит/сек
    Каналы : 2 канала
    Расположение каналов : Front: L R
    Частота : 48,0 КГц
    Частота кадров : 46,875 кадров/сек (1024 SPF)
    Метод сжатия : С потерями
    Задержка видео : -21 мс.
    Размер потока : 30,8 Мбайт (17%)
    Библиотека кодирования : Lavc57.24.102 aac
    Язык : English
    Default : Нет
    Forced : Нет
    Текст
    Идентификатор : 4
    Формат : UTF-8
    Идентификатор кодека : S_TEXT/UTF8
    Идентификатор кодека/Информация : UTF-8 Plain Text
    Продолжительность : 31 м. 23 с.
    Битрейт : 36 бит/сек
    ElementCount : 192
    Размер потока : 8,43 Кбайт (0%)
    Язык : Russian
    Default : Да
    Forced : Нет

    Скриншоты

  • Короткометражки > Легкая жизнь / La vie facile (Жюльен Руйе / Julien Rouyet) [2010, Швейцария, психологический триллер, драма, короткий метр, DVB] DVO (Студия Акцент) + Original (Fre)
  • 31-Авг-2017 23:21

    Ranku

    Легкая жизнь
    La vie facile- Страна: Швейцария
    Жанр: психологический триллер, драма, короткий метр
    Год выпуска: 2010
    Продолжительность: 00:21:12
    Перевод: Профессиональный (двухголосый закадровый) Студия "Акцент" по заказу Kino Polska
    Субтитры: нет
    Оригинальная аудиодорожка: французский
    Режиссер: Жюльен Руйе / Julien RouyetВ ролях: Мило МакМюллен / Milo McMullen (Catherine), Мишель Войта / Michel Voïta (Le père), Дельфин Теодор / Delphine Théodore (Laetitia), Батист Жильерон / Baptiste Gilliéron (Le frère)
    Описание: Вам предлагается история о хрупкости, зыбкости, но и одновременно превалировании семейных уз. 26-летней Катрин беззаботно живется в доме отца до того момента, пока однажды вернувшись поздно вечером домой она не обнаружит там другую женщину, почти свою ровесницу. Привязанность отца к новой любовнице и все возрастающее ее влияние начинают тяготить Катрин, повергают ее в состояние страха и гнева, и она предпринимает попытки вернуться к прежней жизни…
    Доп. информация: Intelsat 15 (85.0°E) Filmbox Arthouse DVB-S
    Участник Festival international du film francophone Namur 2011; Rochester International Film Festival 2011; Internationale Kurzfilmtage Winterthur 2011; Festival International du Cinéma Francophone en Acadie 2011; Geneva International Short Film Festival 2012; Solothurner Filmtage 2012.

    Качество видео: DVB
    Формат видео: MKV
    Видео: MPEG Video 2, [email protected] (16:9), 25 fps, ~1423 kbps avg, 0.137 bit/pixel
    Аудио 1: MPEG Audio 2, 2 ch, 48 kHz, 128 kbps - русский
    Аудио 2: MPEG Audio 2, 2 ch, 48 kHz, 128 kbps - французский

    MediaInfo

    General
    Unique ID : 181093922697137455789229712588871217904 (0x883D6BBC9F48CD658666445ED2AEB2F0)
    Complete name : [apreder]MM_La_vie_facile(2010)DVB.mkv
    Format : Matroska
    Format version : Version 2
    File size : 260 MiB
    Duration : 21 min 12 s
    Overall bit rate mode : Variable
    Overall bit rate : 1 713 kb/s
    Movie name : La vie facile
    Released date : 2011-00-00
    Encoded date : UTC 2017-08-15 15:35:36
    Writing application : mkvmerge v14.0.0 ('Flow') 64bit
    Writing library : libebml v1.3.4 + libmatroska v1.4.5
    Cover : Yes
    Attachments : cover.jpg / small_cover.jpg
    ACTOR : Milo McMullen, Michel Voita, Delphine Theodore
    DIRECTOR : Julien Rouyet
    GENRE : Short, Drama
    IMDB : tt2035549
    KEYWORDS : rutracker.org
    LAW_RATING : 16+
    Video
    ID : 1
    Format : MPEG Video
    Format version : Version 2
    Format profile : [email protected]
    Format settings, BVOP : Yes
    Format settings, Matrix : Custom
    Format settings, GOP : M=4, N=12
    Format settings, picture structure : Frame
    Codec ID : V_MPEG2
    Codec ID/Info : MPEG 1 or 2 Video
    Duration : 21 min 12 s
    Bit rate mode : Variable
    Bit rate : 1 423 kb/s
    Maximum bit rate : 10 000 kb/s
    Width : 720 pixels
    Height : 576 pixels
    Display aspect ratio : 16:9
    Frame rate mode : Constant
    Frame rate : 25.000 FPS
    Standard : PAL
    Color space : YUV
    Chroma subsampling : 4:2:0
    Bit depth : 8 bits
    Scan type : Interlaced
    Scan order : Top Field First
    Compression mode : Lossy
    Bits/(Pixel*Frame) : 0.137
    Time code of first frame : 10:30:32:02
    Time code source : Group of pictures header
    GOP, Open/Closed : Open
    Stream size : 216 MiB (83%)
    Default : Yes
    Forced : No
    Audio #1
    ID : 2
    Format : MPEG Audio
    Format version : Version 1
    Format profile : Layer 2
    Codec ID : A_MPEG/L2
    Codec ID/Hint : MP2
    Duration : 21 min 12 s
    Bit rate mode : Constant
    Bit rate : 128 kb/s
    Channel(s) : 2 channels
    Sampling rate : 48.0 kHz
    Compression mode : Lossy
    Stream size : 19.4 MiB (7%)
    Language : Russian
    Default : Yes
    Forced : No
    Audio #2
    ID : 3
    Format : MPEG Audio
    Format version : Version 1
    Format profile : Layer 2
    Codec ID : A_MPEG/L2
    Codec ID/Hint : MP2
    Duration : 21 min 12 s
    Bit rate mode : Constant
    Bit rate : 128 kb/s
    Channel(s) : 2 channels
    Sampling rate : 48.0 kHz
    Compression mode : Lossy
    Stream size : 19.4 MiB (7%)
    Language : French
    Default : No
    Forced : No

    Скриншот c названием фильма

    Скриншоты

    Резервные скриншоты

    - [3'825]
  • Короткометражки > Исправить всё / Fix You (Тиен Пхат Тран / Thien Phat Tran) [2016, Германия, драма, короткометражный, WEB-DLRip-AVC] VO + Sub Rus + Original Eng
  • 23-Авг-2017 21:46

    Ranku

    Исправить всё / Fix You
    Страна: Германия
    Жанр: драма, короткометражный
    Год выпуска: 2016
    Продолжительность: 00:19:30
    Перевод: Одноголосый закадровый
    Субтитры: русские
    Оригинальная аудиодорожка: английский
    Режиссер: Тиен Пхат Тран / Thien Phat Tran
    В ролях: Джейкоб Нибердинг / Jacob Nieberding, Андреас Бибер/ Andreas Bieber, Мартин Мюллер / Martin Muller
    Описание: Что делать, если случилось несчастье и горе затмевает разум? Исправить всё...
    Сэмпл: http://multi-up.com/1165296
    Качество видео: WEB-DLRip-AVC
    Формат видео: MKV
    Видео: AVC at 1024 Кбит/сек : 1280 x 534 (2.397) at 25.000 fps
    Аудио 1: AAC at 161 Кбит/сек : 2 канала, 96,0 КГц / 48,0 КГц Language : ru
    Аудио 2: AAC at 225 Кбит/сек : 2 канала, 48,0 КГц Language : en
    Формат субтитров: prerendered (IDX+SUB)
    Доп. информация о субтитрах: отключаемые (vlad555)

    MediaInfo

    Общее
    Уникальный идентификатор : 196814821961391457435199758961829736889 (0x941127E9D062DE97B4E3FF16921BF1B9)
    Полное имя : F:\С моей озвучкой\Исправить всё.mkv
    Формат : Matroska
    Версия формата : Version 4 / Version 2
    Размер файла : 194 Мбайт
    Продолжительность : 19 м. 30 с.
    Общий поток : 1388 Кбит/сек
    Дата кодирования : UTC 2017-08-18 18:53:44
    Программа кодирования : mkvmerge v7.9.0 ('Birds') 64bit
    Библиотека кодирования : libebml v1.3.1 + libmatroska v1.4.2
    Видео
    Идентификатор : 1
    Формат : AVC
    Формат/Информация : Advanced Video Codec
    Профиль формата : [email protected]
    Параметр CABAC формата : Нет
    Параметр ReFrames формата : 1 кадр
    Идентификатор кодека : V_MPEG4/ISO/AVC
    Продолжительность : 19 м. 30 с.
    Битрейт : 1024 Кбит/сек
    Ширина : 1280 пикселей
    Высота : 534 пикселя
    Соотношение сторон : 2,40:1
    Режим частоты кадров : Постоянный
    Частота кадров : 25,000 кадров/сек
    Цветовое пространство : YUV
    Субдискретизация насыщенности : 4:2:0
    Битовая глубина : 8 бит
    Тип развёртки : Прогрессивная
    Бит/(Пиксели*Кадры) : 0.060
    Размер потока : 139 Мбайт (72%)
    Библиотека кодирования : x264 core 148 r2643 5c65704
    Настройки программы : cabac=0 / ref=1 / deblock=1:0:0 / analyse=0x1:0x111 / me=hex / subme=7 / psy=1 / psy_rd=1.00:0.00 / mixed_ref=0 / me_range=16 / chroma_me=1 / trellis=1 / 8x8dct=0 / cqm=0 / deadzone=21,11 / fast_pskip=1 / chroma_qp_offset=-2 / threads=9 / lookahead_threads=1 / sliced_threads=0 / nr=0 / decimate=1 / interlaced=0 / bluray_compat=0 / constrained_intra=0 / bframes=0 / weightp=0 / keyint=250 / keyint_min=25 / scenecut=40 / intra_refresh=0 / rc_lookahead=40 / rc=abr / mbtree=1 / bitrate=1024 / ratetol=1.0 / qcomp=0.60 / qpmin=10 / qpmax=51 / qpstep=4 / ip_ratio=1.41 / aq=1:1.00
    Default : Да
    Forced : Нет
    Аудио #1
    Идентификатор : 2
    Формат : AAC
    Формат/Информация : Advanced Audio Codec
    Профиль формата : HE-AAC / LC
    Идентификатор кодека : A_AAC
    Продолжительность : 19 м. 27 с.
    Битрейт : 161 Кбит/сек
    Каналы : 2 канала
    Расположение каналов : Front: L R
    Частота : 96,0 КГц / 48,0 КГц
    Частота кадров : 46,875 кадров/сек (1024 spf)
    Метод сжатия : С потерями
    Задержка видео : -21 мс.
    Размер потока : 22,4 Мбайт (12%)
    Язык : Russian
    Default : Нет
    Forced : Нет
    Аудио #2
    Идентификатор : 3
    Формат : AAC
    Формат/Информация : Advanced Audio Codec
    Профиль формата : LC
    Идентификатор кодека : A_AAC
    Продолжительность : 19 м. 30 с.
    Битрейт : 225 Кбит/сек
    Каналы : 2 канала
    Расположение каналов : Front: L R
    Частота : 48,0 КГц
    Частота кадров : 46,875 кадров/сек (1024 spf)
    Метод сжатия : С потерями
    Задержка видео : -21 мс.
    Размер потока : 31,4 Мбайт (16%)
    Язык : English
    Default : Нет
    Forced : Нет
    Текст
    Идентификатор : 4
    Формат : UTF-8
    Идентификатор кодека : S_TEXT/UTF8
    Идентификатор кодека/Информация : UTF-8 Plain Text
    Продолжительность : 17 м. 49 с.
    Битрейт : 28 бит/сек
    ElementCount : 99
    Размер потока : 3,73 Кбайт (0%)
    Язык : Russian
    Default : Да
    Forced : Нет

    Скриншоты

  • Короткометражки > Сломанные вещи / Broken Things (Винсент Ламбе / Vincent Lambe) [2002, Ирландия, драма, короткометражный, WEB-DLRip-AVC] VO + Sub Rus + Original Eng
  • 23-Авг-2017 21:46

    Ranku

    Сломанные вещи / Broken Things
    Страна: Ирландия
    Жанр: драма, короткометражный
    Год выпуска: 2002
    Продолжительность: 00:14:35
    Перевод: Одноголосый закадровый
    Субтитры: русские
    Оригинальная аудиодорожка: английский
    Режиссер: Винсент Ламбе / Vincent Lambe
    В ролях: Деармит Нойес/ Diarmuid Noyes, Марк Батлер / Mark Butler, Гари Фолон / Gary Fallon, Джонни Уорд / Johnny Ward, Eamonn Hunt, Bernadette McKenna, Marian Reece, Maebh Carron, Ian O'Shea, Andrew Keating
    Описание: У юного Джоуи не самый простой период в жизни: родители находится на грани развода, а в школе его отношения со сверстниками складываются не самым лучшим образом. Сможет ли он найти утешение от обрушившихся на него невзгод в своей любви к музыке?...
    Сэмпл: http://multi-up.com/1165299
    Качество видео: WEB-DLRip-AVC
    Формат видео: MKV
    Видео: AVC at 2048 Кбит/сек : 1276 x 720 (1.772) at 25.000 fps
    Аудио 1: AAC at 126 Кбит/сек : 2 канала, 88,2 КГц / 44,1 КГц Language : ru
    Аудио 2: AAC at 161 Кбит/сек : 2 канала, 44,1 КГц Language : en
    Формат субтитров: prerendered (IDX+SUB)
    Доп. информация о субтитрах: отключаемые (vlad555)

    MediaInfo

    Общее
    Уникальный идентификатор : 216385805171532609642292410948459034465 (0xA2CA63E25040729E80AF341C86BDF761)
    Полное имя : F:\С моей озвучкой\Сломанные вещи.mkv
    Формат : Matroska
    Версия формата : Version 4 / Version 2
    Размер файла : 246 Мбайт
    Продолжительность : 14 м. 35 с.
    Общий поток : 2356 Кбит/сек
    Дата кодирования : UTC 2017-08-18 18:47:05
    Программа кодирования : mkvmerge v7.9.0 ('Birds') 64bit
    Библиотека кодирования : libebml v1.3.1 + libmatroska v1.4.2
    Видео
    Идентификатор : 1
    Формат : AVC
    Формат/Информация : Advanced Video Codec
    Профиль формата : [email protected]
    Параметр CABAC формата : Нет
    Параметр ReFrames формата : 1 кадр
    Идентификатор кодека : V_MPEG4/ISO/AVC
    Продолжительность : 14 м. 35 с.
    Битрейт : 2048 Кбит/сек
    Ширина : 1276 пикселей
    Высота : 720 пикселей
    Соотношение сторон : 16:9
    Режим частоты кадров : Постоянный
    Частота кадров : 25,000 кадров/сек
    Цветовое пространство : YUV
    Субдискретизация насыщенности : 4:2:0
    Битовая глубина : 8 бит
    Тип развёртки : Прогрессивная
    Бит/(Пиксели*Кадры) : 0.089
    Размер потока : 216 Мбайт (88%)
    Библиотека кодирования : x264 core 148 r2643 5c65704
    Настройки программы : cabac=0 / ref=1 / deblock=1:0:0 / analyse=0x1:0x111 / me=hex / subme=7 / psy=1 / psy_rd=1.00:0.00 / mixed_ref=0 / me_range=16 / chroma_me=1 / trellis=1 / 8x8dct=0 / cqm=0 / deadzone=21,11 / fast_pskip=1 / chroma_qp_offset=-2 / threads=9 / lookahead_threads=1 / sliced_threads=0 / nr=0 / decimate=1 / interlaced=0 / bluray_compat=0 / constrained_intra=0 / bframes=0 / weightp=0 / keyint=250 / keyint_min=25 / scenecut=40 / intra_refresh=0 / rc_lookahead=40 / rc=abr / mbtree=1 / bitrate=2048 / ratetol=1.0 / qcomp=0.60 / qpmin=10 / qpmax=51 / qpstep=4 / ip_ratio=1.41 / aq=1:1.00
    Default : Да
    Forced : Нет
    Аудио #1
    Идентификатор : 2
    Формат : AAC
    Формат/Информация : Advanced Audio Codec
    Профиль формата : HE-AAC / LC
    Идентификатор кодека : A_AAC
    Продолжительность : 14 м. 34 с.
    Битрейт : 126 Кбит/сек
    Каналы : 2 канала
    Расположение каналов : Front: L R
    Частота : 88,2 КГц / 44,1 КГц
    Частота кадров : 43,066 кадра/сек (1024 spf)
    Метод сжатия : С потерями
    Задержка видео : -40 мс.
    Размер потока : 13,1 Мбайт (5%)
    Язык : Russian
    Default : Нет
    Forced : Нет
    Аудио #2
    Идентификатор : 3
    Формат : AAC
    Формат/Информация : Advanced Audio Codec
    Профиль формата : LC
    Идентификатор кодека : A_AAC
    Продолжительность : 14 м. 35 с.
    Битрейт : 161 Кбит/сек
    Каналы : 2 канала
    Расположение каналов : Front: L R
    Частота : 44,1 КГц
    Частота кадров : 43,066 кадра/сек (1024 spf)
    Метод сжатия : С потерями
    Задержка видео : -40 мс.
    Размер потока : 16,8 Мбайт (7%)
    Язык : English
    Default : Нет
    Forced : Нет
    Текст
    Идентификатор : 4
    Формат : UTF-8
    Идентификатор кодека : S_TEXT/UTF8
    Идентификатор кодека/Информация : UTF-8 Plain Text
    Продолжительность : 12 м. 33 с.
    Битрейт : 88 бит/сек
    ElementCount : 147
    Размер потока : 8,16 Кбайт (0%)
    Язык : Russian
    Default : Да
    Forced : Нет

    Скриншоты

  • Короткометражки > День дурака / Fool\'s Day (Коди Блю Снайдер / Cody Blue Snider) [2013, США, драма, комедия, короткометражный, WEB-DLRip-AVC] VO + Sub Rus + Original Eng
  • 23-Авг-2017 21:45

    Ranku

    День дурака / Fool's Day
    Страна: США
    Жанр: драма, комедия, короткометражный
    Год выпуска: 2013
    Продолжительность: 00:19:13
    Перевод: Одноголосый закадровый
    Субтитры: русские
    Оригинальная аудиодорожка: английский
    Режиссер: Коди Блю Снайдер / Cody Blue Snider
    В ролях: Джастин Эбсатс / Justin Absatz, Коул Канзано / Cole Canzano, Лиам Фоли / Liam Foley, Чейз Хэйден / Chase Hayden, Митчел Джарвис / Mitchell Jarvis, Филис Боуэн / Phyllis Bowen, Джеремия Бурч / Jeremiah Burch, Клэр Фоли / Clare Foley
    Описание: Первого апреля четвероклассники решили подшутить над своей учительницей...
    Сэмпл: http://multi-up.com/1165300
    Качество видео: WEB-DLRip-AVC
    Формат видео: MKV
    Видео: AVC at 2048 Кбит/сек : 1280 x 516 (2.481) at 23.976 fps
    Аудио 1: AAC at 157 Кбит/сек : 2 канала, 96,0 КГц / 48,0 КГц Language : ru
    Аудио 2: AAC at 162 Кбит/сек : 2 канала, 48,0 КГц Language : en
    Формат субтитров: prerendered (IDX+SUB)
    Доп. информация о субтитрах: отключаемые (vlad555)

    MediaInfo

    Общее
    Уникальный идентификатор : 190052325428480376171951375240096455988 (0x8EFABF17A141C163B2B4750A4CD91D34)
    Полное имя : F:\С моей озвучкой\День дурака.mkv
    Формат : Matroska
    Версия формата : Version 4 / Version 2
    Размер файла : 317 Мбайт
    Продолжительность : 19 м. 13 с.
    Общий поток : 2306 Кбит/сек
    Дата кодирования : UTC 2017-08-18 18:50:42
    Программа кодирования : mkvmerge v7.9.0 ('Birds') 64bit
    Библиотека кодирования : libebml v1.3.1 + libmatroska v1.4.2
    Видео
    Идентификатор : 1
    Формат : AVC
    Формат/Информация : Advanced Video Codec
    Профиль формата : [email protected]
    Параметр CABAC формата : Нет
    Параметр ReFrames формата : 1 кадр
    Идентификатор кодека : V_MPEG4/ISO/AVC
    Продолжительность : 19 м. 13 с.
    Битрейт : 2048 Кбит/сек
    Ширина : 1280 пикселей
    Высота : 516 пикселей
    Соотношение сторон : 2,481
    Режим частоты кадров : Переменный
    Частота кадров : 23,976 кадра/сек
    Цветовое пространство : YUV
    Субдискретизация насыщенности : 4:2:0
    Битовая глубина : 8 бит
    Тип развёртки : Прогрессивная
    Бит/(Пиксели*Кадры) : 0.129
    Размер потока : 273 Мбайт (86%)
    Библиотека кодирования : x264 core 148 r2643 5c65704
    Настройки программы : cabac=0 / ref=1 / deblock=1:0:0 / analyse=0x1:0x111 / me=hex / subme=7 / psy=1 / psy_rd=1.00:0.00 / mixed_ref=0 / me_range=16 / chroma_me=1 / trellis=1 / 8x8dct=0 / cqm=0 / deadzone=21,11 / fast_pskip=1 / chroma_qp_offset=-2 / threads=9 / lookahead_threads=1 / sliced_threads=0 / nr=0 / decimate=1 / interlaced=0 / bluray_compat=0 / constrained_intra=0 / bframes=0 / weightp=0 / keyint=250 / keyint_min=25 / scenecut=40 / intra_refresh=0 / rc_lookahead=40 / rc=abr / mbtree=1 / bitrate=2048 / ratetol=1.0 / qcomp=0.60 / qpmin=10 / qpmax=51 / qpstep=4 / ip_ratio=1.41 / aq=1:1.00
    Default : Да
    Forced : Нет
    Аудио #1
    Идентификатор : 2
    Формат : AAC
    Формат/Информация : Advanced Audio Codec
    Профиль формата : HE-AAC / LC
    Идентификатор кодека : A_AAC
    Продолжительность : 19 м. 9 с.
    Битрейт : 157 Кбит/сек
    Каналы : 2 канала
    Расположение каналов : Front: L R
    Частота : 96,0 КГц / 48,0 КГц
    Частота кадров : 46,875 кадров/сек (1024 spf)
    Метод сжатия : С потерями
    Задержка видео : -21 мс.
    Размер потока : 21,6 Мбайт (7%)
    Язык : Russian
    Default : Нет
    Forced : Нет
    Аудио #2
    Идентификатор : 3
    Формат : AAC
    Формат/Информация : Advanced Audio Codec
    Профиль формата : LC
    Идентификатор кодека : A_AAC
    Продолжительность : 19 м. 13 с.
    Битрейт : 162 Кбит/сек
    Каналы : 2 канала
    Расположение каналов : Front: L R
    Частота : 48,0 КГц
    Частота кадров : 46,875 кадров/сек (1024 spf)
    Метод сжатия : С потерями
    Задержка видео : -21 мс.
    Размер потока : 22,3 Мбайт (7%)
    Язык : English
    Default : Нет
    Forced : Нет
    Текст
    Идентификатор : 4
    Формат : UTF-8
    Идентификатор кодека : S_TEXT/UTF8
    Идентификатор кодека/Информация : UTF-8 Plain Text
    Продолжительность : 18 м. 44 с.
    Битрейт : 107 бит/сек
    ElementCount : 238
    Размер потока : 14,8 Кбайт (0%)
    Язык : English
    Default : Да
    Forced : Нет

    Скриншоты

  • Короткометражки > Шёпот / Whispers (Мурад Перет / Murad Peret) [2013, США, триллер, короткометражный, WEB-DLRip-AVC] VO + Sub Rus + Original Eng
  • 23-Авг-2017 21:45

    Ranku

    Шёпот / Whispers
    Страна: США
    Жанр: триллер, короткометражный
    Год выпуска: 2013
    Продолжительность: 00:14:25
    Перевод: Одноголосый закадровый
    Субтитры: русские
    Оригинальная аудиодорожка: английский
    Режиссер: Мурад Перет / Murad Peret
    В ролях: Иэн Этеридж / Ian Etheridge, Коннор Стюарт / Connor Stewart, Брэндон Дэспейн / Brandon deSpain, Рут Мэхала Салливан / Ruth Mahala Sullivan
    Описание: Джейсон и его младший брат, Томми, живут с матерью, без отца. В один день мать решает познакомить их с Филом - их будущим отчимом...
    Сэмпл: http://multi-up.com/1165295
    Качество видео: WEB-DLRip-AVC
    Формат видео: MKV
    Видео: AVC at 938 Кбит/сек : 1280 x 534 (2.397) at 23.976 fps
    Аудио 1: AAC at 163 Кбит/сек : 2 канала, 96,0 КГц / 48,0 КГц Language : ru
    Аудио 2: AAC at 223 Кбит/сек : 2 канала, 48,0 КГц Language : en
    Формат субтитров: prerendered (IDX+SUB)
    Доп. информация о субтитрах: отключаемые (vlad555)

    MediaInfo

    Общее
    Уникальный идентификатор : 204856193741423358057708902712334931254 (0x9A1DDE26F5B8499EA7128CB3350CD536)
    Полное имя : F:\С моей озвучкой\Шёпот.mkv
    Формат : Matroska
    Версия формата : Version 4 / Version 2
    Размер файла : 137 Мбайт
    Продолжительность : 14 м. 25 с.
    Общий поток : 1325 Кбит/сек
    Дата кодирования : UTC 2017-08-18 18:57:16
    Программа кодирования : mkvmerge v7.9.0 ('Birds') 64bit
    Библиотека кодирования : libebml v1.3.1 + libmatroska v1.4.2
    Видео
    Идентификатор : 1
    Формат : AVC
    Формат/Информация : Advanced Video Codec
    Профиль формата : [email protected]
    Параметр CABAC формата : Нет
    Параметр ReFrames формата : 1 кадр
    Идентификатор кодека : V_MPEG4/ISO/AVC
    Продолжительность : 14 м. 25 с.
    Битрейт : 938 Кбит/сек
    Номинальный битрейт : 1024 Кбит/сек
    Ширина : 1280 пикселей
    Высота : 534 пикселя
    Соотношение сторон : 2,40:1
    Режим частоты кадров : Переменный
    Частота кадров : 23,976 кадра/сек
    Цветовое пространство : YUV
    Субдискретизация насыщенности : 4:2:0
    Битовая глубина : 8 бит
    Тип развёртки : Прогрессивная
    Бит/(Пиксели*Кадры) : 0.057
    Размер потока : 96,8 Мбайт (71%)
    Библиотека кодирования : x264 core 148 r2643 5c65704
    Настройки программы : cabac=0 / ref=1 / deblock=1:0:0 / analyse=0x1:0x111 / me=hex / subme=7 / psy=1 / psy_rd=1.00:0.00 / mixed_ref=0 / me_range=16 / chroma_me=1 / trellis=1 / 8x8dct=0 / cqm=0 / deadzone=21,11 / fast_pskip=1 / chroma_qp_offset=-2 / threads=9 / lookahead_threads=1 / sliced_threads=0 / nr=0 / decimate=1 / interlaced=0 / bluray_compat=0 / constrained_intra=0 / bframes=0 / weightp=0 / keyint=250 / keyint_min=25 / scenecut=40 / intra_refresh=0 / rc_lookahead=40 / rc=abr / mbtree=1 / bitrate=1024 / ratetol=1.0 / qcomp=0.60 / qpmin=10 / qpmax=51 / qpstep=4 / ip_ratio=1.41 / aq=1:1.00
    Default : Да
    Forced : Нет
    Аудио #1
    Идентификатор : 2
    Формат : AAC
    Формат/Информация : Advanced Audio Codec
    Профиль формата : HE-AAC / LC
    Идентификатор кодека : A_AAC
    Продолжительность : 14 м. 21 с.
    Битрейт : 163 Кбит/сек
    Каналы : 2 канала
    Расположение каналов : Front: L R
    Частота : 96,0 КГц / 48,0 КГц
    Частота кадров : 46,875 кадров/сек (1024 spf)
    Метод сжатия : С потерями
    Задержка видео : -21 мс.
    Размер потока : 16,7 Мбайт (12%)
    Язык : Russian
    Default : Нет
    Forced : Нет
    Аудио #2
    Идентификатор : 3
    Формат : AAC
    Формат/Информация : Advanced Audio Codec
    Профиль формата : LC
    Идентификатор кодека : A_AAC
    Продолжительность : 14 м. 25 с.
    Битрейт : 223 Кбит/сек
    Каналы : 2 канала
    Расположение каналов : Front: L R
    Частота : 48,0 КГц
    Частота кадров : 46,875 кадров/сек (1024 spf)
    Метод сжатия : С потерями
    Задержка видео : -21 мс.
    Размер потока : 23,0 Мбайт (17%)
    Язык : English
    Default : Нет
    Forced : Нет
    Текст
    Идентификатор : 4
    Формат : UTF-8
    Идентификатор кодека : S_TEXT/UTF8
    Идентификатор кодека/Информация : UTF-8 Plain Text
    Продолжительность : 12 м. 47 с.
    Битрейт : 76 бит/сек
    ElementCount : 121
    Размер потока : 7,13 Кбайт (0%)
    Язык : Russian
    Default : Да
    Forced : Нет

    Скриншоты

  • Короткометражки > Странные облака / Strange Clouds (Тимоти Джон Шарп / Timothy John Sharp) [2012, Австралия, драма, фантастика, короткометражный, WEB-DLRip-AVC] VO + Sub Rus + Original Eng
  • 23-Авг-2017 21:44

    Ranku

    Странные облака / Strange Clouds
    Страна: Австралия
    Жанр: драма, фантастика, короткометражный
    Год выпуска: 2012
    Продолжительность: 00:11:10
    Перевод: Одноголосый закадровый
    Субтитры: русские
    Оригинальная аудиодорожка: английский
    Режиссер: Тимоти Джон Шарп / Timothy John Sharp
    В ролях: Джейкоб Браун / Jacob Brown, William Mattock, Scott Morgan, Nina Deasley
    Описание: Трое подростков пытаются найти себе занятие очередным скучным днём, не подозревая, что этот день - последний...
    Сэмпл: http://multi-up.com/1165292
    Качество видео: WEB-DLRip-AVC
    Формат видео: MKV
    Видео: AVC at 1800 Кбит/сек : 1920 x 812 (2.365) at 25.000 fps
    Аудио 1: AAC at 125 Кбит/сек : 2 канала, 88,2 КГц / 44,1 КГц Language : ru
    Аудио 2: AAC at 127 Кбит/сек : 2 канала, 44,1 КГц Language : en
    Формат субтитров: prerendered (IDX+SUB)
    Доп. информация о субтитрах: отключаемые (vlad555)

    MediaInfo

    Общее
    Уникальный идентификатор : 254669892637162620911553524237532463640 (0xBF97A3209CD5F823A736050A830D0218)
    Полное имя : F:\С моей озвучкой\Странные облака.mkv
    Формат : Matroska
    Версия формата : Version 4 / Version 2
    Размер файла : 158 Мбайт
    Продолжительность : 11 м. 10 с.
    Общий поток : 1983 Кбит/сек
    Дата кодирования : UTC 2017-08-18 19:00:16
    Программа кодирования : mkvmerge v7.9.0 ('Birds') 64bit
    Библиотека кодирования : libebml v1.3.1 + libmatroska v1.4.2
    Видео
    Идентификатор : 1
    Формат : AVC
    Формат/Информация : Advanced Video Codec
    Профиль формата : [email protected]
    Параметр CABAC формата : Нет
    Параметр ReFrames формата : 1 кадр
    Идентификатор кодека : V_MPEG4/ISO/AVC
    Продолжительность : 11 м. 10 с.
    Битрейт : 1800 Кбит/сек
    Ширина : 1920 пикселей
    Высота : 812 пикселей
    Соотношение сторон : 2,35:1
    Режим частоты кадров : Постоянный
    Частота кадров : 25,000 кадров/сек
    Цветовое пространство : YUV
    Субдискретизация насыщенности : 4:2:0
    Битовая глубина : 8 бит
    Тип развёртки : Прогрессивная
    Бит/(Пиксели*Кадры) : 0.046
    Размер потока : 138 Мбайт (87%)
    Библиотека кодирования : x264 core 148 r2643 5c65704
    Настройки программы : cabac=0 / ref=1 / deblock=1:0:0 / analyse=0x1:0x111 / me=hex / subme=7 / psy=1 / psy_rd=1.00:0.00 / mixed_ref=0 / me_range=16 / chroma_me=1 / trellis=1 / 8x8dct=0 / cqm=0 / deadzone=21,11 / fast_pskip=1 / chroma_qp_offset=-2 / threads=9 / lookahead_threads=1 / sliced_threads=0 / nr=0 / decimate=1 / interlaced=0 / bluray_compat=0 / constrained_intra=0 / bframes=0 / weightp=0 / keyint=250 / keyint_min=25 / scenecut=40 / intra_refresh=0 / rc_lookahead=40 / rc=abr / mbtree=1 / bitrate=1800 / ratetol=1.0 / qcomp=0.60 / qpmin=10 / qpmax=51 / qpstep=4 / ip_ratio=1.41 / aq=1:1.00
    Default : Да
    Forced : Нет
    Аудио #1
    Идентификатор : 2
    Формат : AAC
    Формат/Информация : Advanced Audio Codec
    Профиль формата : HE-AAC / LC
    Идентификатор кодека : A_AAC
    Продолжительность : 11 м. 8 с.
    Битрейт : 125 Кбит/сек
    Каналы : 2 канала
    Расположение каналов : Front: L R
    Частота : 88,2 КГц / 44,1 КГц
    Частота кадров : 43,066 кадра/сек (1024 spf)
    Метод сжатия : С потерями
    Задержка видео : -23 мс.
    Размер потока : 9,95 Мбайт (6%)
    Язык : Russian
    Default : Нет
    Forced : Нет
    Аудио #2
    Идентификатор : 3
    Формат : AAC
    Формат/Информация : Advanced Audio Codec
    Профиль формата : LC
    Идентификатор кодека : A_AAC
    Продолжительность : 11 м. 10 с.
    Битрейт : 127 Кбит/сек
    Каналы : 2 канала
    Расположение каналов : Front: L R
    Частота : 44,1 КГц
    Частота кадров : 43,066 кадра/сек (1024 spf)
    Метод сжатия : С потерями
    Задержка видео : -23 мс.
    Размер потока : 10,2 Мбайт (6%)
    Язык : English
    Default : Нет
    Forced : Нет
    Текст
    Идентификатор : 4
    Формат : UTF-8
    Идентификатор кодека : S_TEXT/UTF8
    Идентификатор кодека/Информация : UTF-8 Plain Text
    Продолжительность : 9 м. 27 с.
    Битрейт : 41 бит/сек
    ElementCount : 62
    Размер потока : 2,85 Кбайт (0%)
    Язык : Russian
    Default : Да
    Forced : Нет

    Скриншоты

  • Короткометражки > Всего лишь немного утешения / Небольшое утешение / Juste Un Peu De Réconfort (Арман Лямёлюаз / Armand Lameloise) [2004, Франция, драма / короткометражный, DVDRip]
  • 22-Авг-2017 21:12

    Ranku

    Всего лишь немного утешения / Небольшое утешение / Juste Un Peu De Réconfort
    Год выпуска: 2004
    Страна: Франция
    Жанр: драма / короткометражный
    Продолжительность: 39 минут
    Перевод: Субтитры
    Русские субтитры: есть
    Режиссер: Арман Лямёлюаз (Armand Lameloise)
    В ролях: Arthur Moncla, Rémi Bresson, Élodie Bollée, Anna Mihalcea, Jonathan Reyes, Stanislas Crevillén, Fabienne Babe, Manuel Blanc, Eva Mazauric, Annie Philippe, Pascale Sully, Nathalie Reuter, Sébastien Abellan, Frédéric Niedermayer, Mathieu Dewailly
    Описание: Арно и Гийом заканчивают последний класс школы в расстройстве и смущении. Выходные они проводят в кампании друзей: сигареты, девчонки, выпивка — и внутренние мучения… Арно осознаёт, что он влюбляется в своего друга Гийома.
    Качество: DVDRip
    Формат: AVI
    Видео кодек: DivX
    Аудио кодек: MP3
    Видео: DivX 5 464x256 25.00fps 1123Kbps
    Аудио: MPEG Audio Layer 3 48000Hz stereo 120Kbps

    Скриншоты

  • Короткометражки > Польские легенды / Legendy Polskie (Томек Багиньски / Tomasz Bagiński / Tomek Baginski) [2016, Польша, короткий метр, фэнтези, комедия, WEB-DLRip] VO (Стефан Барковский) (Von Negoziant)
  • 11-Авг-2017 20:15

    Ranku

    Польские легенды / Legendy Polskie
    Страна: Польша
    Жанр: короткий метр, фэнтези, комедия
    Год выпуска: 2016
    Продолжительность: 01:13:20
    Перевод: Одноголосый закадровый Стефан Барковский
    Перевод 2: Субтитры Von Negoziant
    Субтитры: русские (Von_Negoziant), английские, польские
    Оригинальная аудиодорожка: Польский
    Режиссер: Томек Багиньски / Tomasz Bagiński / Tomek Baginski
    В ролях: Польские легенды: Дракон / Legendy Polskie: Smok
    Ким Кольд, Томаш Влосок, Ванесса Александер, Ежи Штур
    Польские легенды: Твардовски / Legendy Polskie: Twardowsky
    Роберт Венцкевич , Александра Каспшик
    Польские легенды: Твардовски 2.0 / Legendy Polskie: Twardowsky 2.0
    Роберт Венцкевич, Александра Каспшик, Томаш Драбек, Пётр Махалица
    Польские легенды: Операция «Василиск» / Legendy Polskie: Operacja Bazyliszek
    Павел Домагала, Олаф Любашенко, Михалина Ольшаньска
    Польские легенды: Яга / Legendy Polskie: Jaga
    Катажина Посьпех, Томаш Драбек, Пётр Махалица
    Описание: Серия короткометражных фильмов в жанре научной фантастики и фэнтези, созданных интернет-магазином Allegro, студией Platige Image и режиссёром Томеком Багиньским. Тематика серии - футуристическая интерпретация польских народных преданий и легенд.
    “Идея “Легенд…” возникла из необходимости проверить, возможно ли вообще в польском кино массовое развлечение под знаком Sci-Fi. Этот жанр в настоящее время является главной опорой мирового развлекательного кино, а в польском практически не существует. Выбор польских легенд как темы был естественным. Насколько в мире новые пересказы мифов, сказок и легенд имеют давнюю традицию, настолько в Польше такие примеры можно пересчитать по пальцам одной руки…”
    - Томек Багиньски
    Доп. информация: В фильмах Твардовски, Твардовски 2.0, Операция «Василиск» присутствует ненормативная лексика.
    Сэмпл: http://yadi.sk/i/vzTM4m293LkBip
    Качество видео: WEB-DLRip
    Формат видео: MKV
    Видео: AVC, 1280x720, 16:9, 25.000 fps, 8 bits
    Аудио: AAC, 48.0 KHz, 2 ch, ~126 kbps
    Аудио 2: AAC, 44.1 KHz, 2 ch, ~126 kbps
    Формат субтитров: softsub (SRT)

    MediaInfo

    General
    Unique ID : 203548669739395542104207032130887621748 (0x99220C3DDFDB21F0908FCB4405061C74)
    Complete name : D:\(J) KINGSTON\Аудио\Legendy Polskie – 2015-2016 – Tomasz Baginski [WEB-DLRip]\Legendy Polskie. Film Operacja Bazyliszek. Allegro.mkv
    Format : Matroska
    Format version : Version 1
    File size : 157 MiB
    Duration : 17mn 17s
    Overall bit rate : 1 271 Kbps
    Encoded date : UTC 2017-08-05 22:50:35
    Writing application : mkvmerge v2.0.2 ('You're My Flame') built on Feb 21 2007 23:40:55
    Writing library : libebml v0.7.7 + libmatroska v0.8.1
    Video
    ID : 1
    Format : AVC
    Format/Info : Advanced Video Codec
    Format profile : [email protected]
    Format settings, CABAC : Yes
    Format settings, ReFrames : 3 frames
    Codec ID : V_MPEG4/ISO/AVC
    Duration : 17mn 17s
    Width : 1 280 pixels
    Height : 720 pixels
    Display aspect ratio : 16:9
    Frame rate mode : Constant
    Frame rate : 25.000 fps
    Color space : YUV
    Chroma subsampling : 4:2:0
    Bit depth : 8 bits
    Scan type : Progressive
    Title : VIdeo
    Language : Polish
    Default : Yes
    Forced : No
    Color primaries : BT.709
    Transfer characteristics : BT.709
    Matrix coefficients : BT.709
    Audio #1
    ID : 2
    Format : AAC
    Format/Info : Advanced Audio Codec
    Format profile : LC
    Codec ID : A_AAC
    Duration : 17mn 17s
    Channel(s) : 2 channels
    Channel positions : Front: L R
    Sampling rate : 48.0 KHz
    Compression mode : Lossy
    Title : Rus_Sound_Stefan
    Language : Russian
    Default : Yes
    Forced : No
    Audio #2
    ID : 3
    Format : AAC
    Format/Info : Advanced Audio Codec
    Format profile : LC
    Codec ID : A_AAC
    Duration : 17mn 17s
    Channel(s) : 2 channels
    Channel positions : Front: L R
    Sampling rate : 44.1 KHz
    Compression mode : Lossy
    Title : Original_Sound
    Language : Polish
    Default : No
    Forced : No
    Text #1
    ID : 4
    Format : UTF-8
    Codec ID : S_TEXT/UTF8
    Codec ID/Info : UTF-8 Plain Text
    Title : Rus_Sub_Von_Negoziant
    Language : Russian
    Default : No
    Forced : No
    Text #2
    ID : 5
    Format : UTF-8
    Codec ID : S_TEXT/UTF8
    Codec ID/Info : UTF-8 Plain Text
    Title : Eng_Sub
    Language : English
    Default : No
    Forced : No
    Text #3
    ID : 6
    Format : UTF-8
    Codec ID : S_TEXT/UTF8
    Codec ID/Info : UTF-8 Plain Text
    Title : Pol_Sub
    Language : Polish
    Default : No
    Forced : No

    Скриншот c названием фильма

    Скриншоты









Sitemap