Поиск Результатов поиска: 500

  • Folk-Rock (lossless) > (Alternative | Folk-Rock) [WEB] Micah P. Hinson - When I Shoot At You With Arrows, I Will Shoot To Destroy You - 2018, FLAC (tracks), lossless
  • 29-Окт-2018 13:50

    Ranku



    Micah P. Hinson

    When I Shoot At You With Arrows, I Will Shoot To Destroy You





    • Жанр: Alternative | Folk-Rock
    • Носитель: WEB
    • Год издания: 2018
    • Издатель: Full Time Hobby
    • Страна: USA
    • Аудиокодек: FLAC (*.flac)
    • Тип рипа: tracks
    • Продолжительность: 00:37:08
    • Источник (спасибо): NBMus
    • WEB релиз: ссылка
    • Наличие сканов: front

    01 - I Am Looking For the Truth, Not a Knife in the Back (00:06:14)
    02 - The Sleep of the Damned (00:02:46)
    03 - Fuck Your Wisdom (00:05:34)
    04 - When I Shoot At You With Arrows, I Will Shoot to Destroy You (00:06:45)
    05 - Small Spaces (00:03:12)
    06 - My Blood Will Call Out to You From the Ground (00:03:26)
    07 - The Skulls of Christ (00:09:08)

    -
    --

    • Лог проверки качества •

    -----------------------
    DON'T MODIFY THIS FILE
    -----------------------
    PERFORMER: auCDtect Task Manager, ver. 1.5.1RC3 build 1.5.1.4Copyright (c) 2008-2010 y-soft. All rights reservedhttp://y-soft.org
    ANALYZER: auCDtect: CD records authenticity detector, version 0.8.2Copyright (c) 2004 Oleg Berngardt. All rights reserved.Copyright (c) 2004 Alexander Djourik. All rights reserved.
    FILE: 07 - The Skulls of Christ.flac Size: 56414335 Hash: C06B7BDD6DBCF4C432DF46FE593B10F4 Accuracy: -m0 Conclusion: CDDA 100% Signature: 6A197757D9CA94A28B6FE54193BCC70A5D051F0AFILE: 06 - My Blood Will Call Out to You From the Ground.flac Size: 18499384 Hash: 1394AE84B5C1D3382FD79FABCF9A22F1 Accuracy: -m0 Conclusion: CDDA 99% Signature: 852B2DEDDD36323D0CAD9C887F12CE7F1C98F33FFILE: 05 - Small Spaces.flac Size: 25455037 Hash: 5CF5C919E08E1D229B6FCB110A31B1DF Accuracy: -m0 Conclusion: CDDA 100% Signature: 8AC89BDD010ACF0E98933FA4FA91C13034CD9071FILE: 04 - When I Shoot At You With Arrows, I Will Shoot to Destroy You.flac Size: 41538441 Hash: 1046B5F4026087A27FED16409BD560F9 Accuracy: -m0 Conclusion: CDDA 100% Signature: 6B53A166D67E2AF8E0CA3DDB3B2F5D8ABAF53A57FILE: 03 - Fuck Your Wisdom.flac Size: 29478011 Hash: 519D9D3EF0BF06E35EDE9FCBB2796B21 Accuracy: -m0 Conclusion: CDDA 99% Signature: 11D0EFAF8816A2E7663BF7D7D091CD9065D3D15DFILE: 02 - The Sleep of the Damned.flac Size: 21004567 Hash: 8903D1A80FD37461500584714789EC8A Accuracy: -m0 Conclusion: CDDA 100% Signature: 3C2819370575E845C12AC77C1886DE9FC53465F7FILE: 01 - I Am Looking For the Truth, Not a Knife in the Back.flac Size: 36720642 Hash: 7798826C737EC871FC6CB82BC4A85DCA Accuracy: -m0 Conclusion: CDDA 100% Signature: 532ABE498C94A818868E7971C39416E0606C075A
    -
  • Folk-Rock (lossless) > (Folk | World) [WEB] Gaye Su Akyol - İstikrarlı Hayal Hakikattir - 2018, FLAC (tracks), lossless
  • 29-Окт-2018 13:22

    Ranku



    Gaye Su Akyol

    İstikrarlı Hayal Hakikattir





    • Жанр: Folk | World
    • Носитель: WEB
    • Год издания: 2018
    • Издатель: Glitterbeat Records
    • Страна: Turkey
    • Аудиокодек: FLAC (*.flac)
    • Тип рипа: tracks
    • Продолжительность: 00:42:43
    • Источник (спасибо): NBMus
    • WEB релиз: ссылка
    • Наличие сканов: booklet

    01 - İstikrarlı Hayal Hakikattir (00:05:20)
    02 - Bağrımızda Taş (00:03:57)
    03 - Laziko (00:04:05)
    04 - Golgenle Bir Başıma (00:05:07)
    05 - Meftunum Sana (00:04:16)
    06 - Şahmeran (00:03:50)
    07 - Bir Yaralı Kuştum (00:05:12)
    08 - Hemşerim Memleket Nire (00:04:48)
    09 - Boşluk Ve Sonsuzluk (00:01:39)
    10 - Halimiz İtten Beter (00:04:23)
    -
    --

    • Лог проверки качества •

    -----------------------
    DON'T MODIFY THIS FILE
    -----------------------
    PERFORMER: auCDtect Task Manager, ver. 1.6.0 RC1 build 1.6.0.1Copyright (c) 2008-2010 y-soft. All rights reservedhttp://y-soft.org
    ANALYZER: auCDtect: CD records authenticity detector, version 0.8.2Copyright (c) 2004 Oleg Berngardt. All rights reserved.Copyright (c) 2004 Alexander Djourik. All rights reserved.
    FILE: 10.flac Size: 27874804 Hash: 049B55F5254CC26E02226EDA310E9AC3 Accuracy: -m0 Conclusion: CDDA 100% Signature: 3B3AC05CC818213EB9E2729B8FC3181D242372ECFILE: 09.flac Size: 9659408 Hash: 7789A161A5F1C1B1D259B23FE2DF5BB9 Accuracy: -m0 Conclusion: CDDA 100% Signature: 7ED8E51F8DC5D0E84BAD255DD2D17DB75A17AB9EFILE: 08.flac Size: 30783295 Hash: 73A620D0050373C830875434C54E176C Accuracy: -m0 Conclusion: CDDA 100% Signature: D1974DFE81FBF5DB686E4BBD961853D71C356357FILE: 07.flac Size: 32108433 Hash: 4648368149C17ABD6208869EAB83FAB1 Accuracy: -m0 Conclusion: CDDA 100% Signature: 1175FC3963A3FC6C916294D4C5248F8FE1BC413CFILE: 06.flac Size: 26361945 Hash: EBFE822138630F198634B7AF8868A788 Accuracy: -m0 Conclusion: CDDA 94% Signature: FA814292CB5077D437BC56C88DDB468115B81609FILE: 05.flac Size: 25770951 Hash: 1645AFC4EEE40F90C215E98D29D3D740 Accuracy: -m0 Conclusion: CDDA 100% Signature: 0C57250E376AC1773BF433BB15E71F27D0BB49C3FILE: 04.flac Size: 28143596 Hash: 9DDD1C7C07B753BFDC49B9373786735E Accuracy: -m0 Conclusion: CDDA 100% Signature: 16054B5D36E2A2DC67FD83F2D54A134B09D4FCD6FILE: 03.flac Size: 28724779 Hash: E75C3AEED49039DCD2A235A51558D2C8 Accuracy: -m0 Conclusion: CDDA 100% Signature: 6FCFEBDF54DEE00AFA9E5C050507C8505B58B64DFILE: 02.flac Size: 26145033 Hash: 4758C5DA13C761CB08BFAF43735192BE Accuracy: -m0 Conclusion: CDDA 100% Signature: 44002C73B41646C9B41C357DA16240F14A7DBBB8FILE: 01.flac Size: 35105011 Hash: 6F4980D65F9BDEB5FB51538AEBCEF499 Accuracy: -m0 Conclusion: CDDA 100% Signature: 7B9B8659A566F5EA4743E4860F6BC3D54BCBDA23
    -
  • Folk-Rock (lossless) > (Folk-Rock | Indie-Folk | Experimental) [CD] Phosphorescent - C’est La Vie - 2018, FLAC (tracks+.cue), lossless
  • 29-Окт-2018 13:20

    Ranku

    Phosphorescent / C’est La Vie
    Жанр: Folk-Rock | Indie-Folk | Experimental
    Носитель: CD
    Страна-производитель диска (релиза): USA
    Год издания: 2018
    Издатель (лейбл): Dead Oceans
    Номер по каталогу: DOC113
    Страна исполнителя (группы): USA
    Аудиокодек: FLAC (*.flac)
    Тип рипа: tracks+.cue
    Битрейт аудио: lossless
    Продолжительность: 00:46:05
    Источник (релизер): Red [zerorules]
    Наличие сканов в содержимом раздачи: нет
    Треклист:

    01. Black Moon / Silver Waves (01:16)
    02. C'est La Vie No.2 (03:26)
    03. New Birth in New England (05:00)
    04. There From Here (05:21)
    05. Around the Horn (08:12)
    06. Christmas Down Under (06:17)
    07. My Beautiful Boy (05:46)
    08. These Rocks (04:27)
    09. Black Waves / Silver Moon (06:22)

    Лог создания рипа

    Exact Audio Copy V1.3 from 2. September 2016
    EAC extraction logfile from 26. October 2018, 10:58
    Phosphorescent / C'est La Vie
    Used drive : HL-DT-STDVDRAM GH24NSD1 Adapter: 1 ID: 0
    Read mode : SecureUtilize accurate stream : YesDefeat audio cache : YesMake use of C2 pointers : No
    Read offset correction : 6Overread into Lead-In and Lead-Out : NoFill up missing offset samples with silence : YesDelete leading and trailing silent blocks : NoNull samples used in CRC calculations : YesUsed interface : Native Win32 interface for Win NT & 2000Gap handling : Appended to previous track
    Used output format : User Defined EncoderSelected bitrate : 1024 kBit/sQuality : HighAdd ID3 tag : NoCommand line compressor : C:\Program Files (x86)\Exact Audio Copy\Flac\flac.exeAdditional command line options : -8 -e -p -V -T "ARTIST=%artist%" -T "TITLE=%title%" -T "ALBUM=%albumtitle%" -T "DATE=%year%" -T "TRACKNUMBER=%tracknr%" -T "GENRE=%genre%" -T "PERFORMER=%albuminterpret%" -T "COMPOSER=%composer%" %haslyrics%--tag-from-file=LYRICS="%lyricsfile%"%haslyrics% -T "ALBUMARTIST=%albumartist%" -T "DISCNUMBER=%cdnumber%" -T "TOTALDISCS=%totalcds%" -T "TOTALTRACKS=%numtracks%" -T "COMMENT=%comment%" %source% -o %dest%
    TOC of the extracted CD
    Track | Start | Length | Start sector | End sector --------------------------------------------------------- 1 | 0:00.00 | 1:16.52 | 0 | 5751 2 | 1:16.52 | 3:25.26 | 5752 | 21152 3 | 4:42.03 | 4:59.51 | 21153 | 43628 4 | 9:41.54 | 5:20.53 | 43629 | 67681 5 | 15:02.32 | 8:10.61 | 67682 | 104492 6 | 23:13.18 | 6:14.66 | 104493 | 132608 7 | 29:28.09 | 5:46.04 | 132609 | 158562 8 | 35:14.13 | 4:26.34 | 158563 | 178546 9 | 39:40.47 | 6:21.54 | 178547 | 207175
    Track 1
    Filename C:\DiskD\Extraction\01 - Black Moon - Silver Waves.wav
    Pre-gap length 0:00:02.00
    Peak level 99.2 % Extraction speed 2.7 X Track quality 99.8 % Test CRC 2F371AFE Copy CRC 2F371AFE Track not present in AccurateRip database Copy OK
    Track 2
    Filename C:\DiskD\Extraction\02 - C'est La Vie No. 2.wav
    Peak level 99.7 % Extraction speed 4.8 X Track quality 100.0 % Test CRC 66C3E133 Copy CRC 66C3E133 Track not present in AccurateRip database Copy OK
    Track 3
    Filename C:\DiskD\Extraction\03 - New Birth in New England.wav
    Peak level 100.0 % Extraction speed 5.4 X Track quality 100.0 % Test CRC 102260C1 Copy CRC 102260C1 Track not present in AccurateRip database Copy OK
    Track 4
    Filename C:\DiskD\Extraction\04 - There from Here.wav
    Peak level 100.0 % Extraction speed 5.4 X Track quality 99.9 % Test CRC ACB1C732 Copy CRC ACB1C732 Track not present in AccurateRip database Copy OK
    Track 5
    Filename C:\DiskD\Extraction\05 - Around the Horn.wav
    Peak level 100.0 % Extraction speed 6.7 X Track quality 100.0 % Test CRC 6E032777 Copy CRC 6E032777 Track not present in AccurateRip database Copy OK
    Track 6
    Filename C:\DiskD\Extraction\06 - Christmas Down Under.wav
    Peak level 100.0 % Extraction speed 7.2 X Track quality 100.0 % Test CRC BAE77028 Copy CRC BAE77028 Track not present in AccurateRip database Copy OK
    Track 7
    Filename C:\DiskD\Extraction\07 - My Beautiful Boy.wav
    Peak level 99.3 % Extraction speed 7.5 X Track quality 100.0 % Test CRC 3A7D0AB9 Copy CRC 3A7D0AB9 Track not present in AccurateRip database Copy OK
    Track 8
    Filename C:\DiskD\Extraction\08 - These Rocks.wav
    Peak level 100.0 % Extraction speed 7.5 X Track quality 100.0 % Test CRC A629ECBC Copy CRC A629ECBC Track not present in AccurateRip database Copy OK
    Track 9
    Filename C:\DiskD\Extraction\09 - Black Waves - Silver Moon.wav
    Peak level 99.3 % Extraction speed 8.1 X Track quality 100.0 % Test CRC 96CC9CFC Copy CRC 96CC9CFC Track not present in AccurateRip database Copy OK
    None of the tracks are present in the AccurateRip database
    No errors occurred
    End of status report
    ---- CUETools DB Plugin V2.1.6
    [CTDB TOCID: wtYRv.eQs.hv8dUnTg30.jVy2ak-] foundSubmit result: wtYRv.eQs.hv8dUnTg30.jVy2ak- has been confirmedTrack | CTDB Status 1 | (6/6) Accurately ripped 2 | (6/6) Accurately ripped 3 | (6/6) Accurately ripped 4 | (6/6) Accurately ripped 5 | (6/6) Accurately ripped 6 | (6/6) Accurately ripped 7 | (6/6) Accurately ripped 8 | (6/6) Accurately ripped 9 | (6/6) Accurately ripped
    ==== Log checksum 78BA75E9647248940EB35ECE1A180CBD133BC9789F08D6C3DCF6095C81406F1B ====

    Содержание индексной карты (.CUE)

    REM GENRE "Alt. Rock"REM DATE 2018REM DISCID 760ACA09REM COMMENT "ExactAudioCopy v1.3"PERFORMER "Phosphorescent"TITLE "C'est La Vie"REM COMPOSER ""FILE "01 - Black Moon - Silver Waves.wav" WAVE  TRACK 01 AUDIO    TITLE "Black Moon / Silver Waves"    PERFORMER "Phosphorescent"    REM COMPOSER ""    INDEX 01 00:00:00FILE "02 - C'est La Vie No. 2.wav" WAVE  TRACK 02 AUDIO    TITLE "C'est La Vie No. 2"    PERFORMER "Phosphorescent"    REM COMPOSER ""    INDEX 01 00:00:00FILE "03 - New Birth in New England.wav" WAVE  TRACK 03 AUDIO    TITLE "New Birth in New England"    PERFORMER "Phosphorescent"    REM COMPOSER ""    INDEX 01 00:00:00FILE "04 - There from Here.wav" WAVE  TRACK 04 AUDIO    TITLE "There from Here"    PERFORMER "Phosphorescent"    REM COMPOSER ""    INDEX 01 00:00:00FILE "05 - Around the Horn.wav" WAVE  TRACK 05 AUDIO    TITLE "Around the Horn"    PERFORMER "Phosphorescent"    REM COMPOSER ""    INDEX 01 00:00:00FILE "06 - Christmas Down Under.wav" WAVE  TRACK 06 AUDIO    TITLE "Christmas Down Under"    PERFORMER "Phosphorescent"    REM COMPOSER ""    INDEX 01 00:00:00FILE "07 - My Beautiful Boy.wav" WAVE  TRACK 07 AUDIO    TITLE "My Beautiful Boy"    PERFORMER "Phosphorescent"    REM COMPOSER ""    INDEX 01 00:00:00FILE "08 - These Rocks.wav" WAVE  TRACK 08 AUDIO    TITLE "These Rocks"    PERFORMER "Phosphorescent"    REM COMPOSER ""    INDEX 01 00:00:00FILE "09 - Black Waves - Silver Moon.wav" WAVE  TRACK 09 AUDIO    TITLE "Black Waves / Silver Moon"    PERFORMER "Phosphorescent"    REM COMPOSER ""    INDEX 01 00:00:00
  • Folk-Rock (lossless) > (Folk Rock, Blues Rock, Country) The Notting Hillbillies - Дискография (4CD) - 1990, FLAC (image+.cue), lossless
  • 29-Окт-2018 12:52

    Ranku

    The Notting Hillbillies
    Дискография
    1 альбом, 2 CDS | 4 издания
    Жанр: Folk Rock, Blues Rock, Country
    Страны-производители дисков: Великобритания, Германия, США
    Годы издания: 1990 (1990-200?)
    Лейблы: Vertigo, Warner Bros. Records
    Аудиокодек: FLAC (*.flac)
    Тип рипа: image+.cue
    Битрейт: lossless
    Продолжительность: 04:36:23
    Наличие сканов в содержимом раздачи: да

    (1990) Your Own Sweet Way (CDS) [Vertigo – 875 025-2] • [Germany]

    Год: 1990
    Лейбл: Vertigo
    Каталожный номер: 875 025-2
    Штрих-код: 0 42287 50252 5
    Матрица диска: 875 025–2 01 # | MADE IN W. GERMANY BY PDO
    Источник: Alex Fal
    Продолжительность: 00:09:20
    Треклист:
    [01] Your Own Sweet Way [03:50]
    [02] Bewildered [02:39]
    [03] That's Where I Belong [02:51]

    Лог создания рипа

    Exact Audio Copy V1.2 from 12. August 2016
    EAC extraction logfile from 5. August 2018, 17:06
    The Notting Hillbillies / Your Own Sweet Way
    Used drive : ASUS SDRW-08D1S-U Adapter: 1 ID: 1
    Read mode : SecureUtilize accurate stream : YesDefeat audio cache : YesMake use of C2 pointers : No
    Read offset correction : 667Overread into Lead-In and Lead-Out : NoFill up missing offset samples with silence : YesDelete leading and trailing silent blocks : NoNull samples used in CRC calculations : YesUsed interface : Native Win32 interface for Win NT & 2000
    Used output format : User Defined EncoderSelected bitrate : 128 kBit/sQuality : HighAdd ID3 tag : NoCommand line compressor : C:\Program Files (x86)\Exact Audio Copy\Flac\flac.exeAdditional command line options : -V -8 -T "Date=%year%" -T "Genre=%genre%" %source%
    TOC of the extracted CD
    Track | Start | Length | Start sector | End sector --------------------------------------------------------- 1 | 0:00.33 | 3:50.00 | 33 | 17282 2 | 3:50.33 | 2:39.00 | 17283 | 29207 3 | 6:29.33 | 2:51.37 | 29208 | 42069
    Range status and errors
    Selected range
    Filename C:\Users\Олег\Desktop\The Notting Hillbillies - Your Own Sweet Way\The Notting Hillbillies - Your Own Sweet Way.wav
    Peak level 80.9 % Extraction speed 1.4 X Range quality 100.0 % Test CRC 2CDAD182 Copy CRC 2CDAD182 Copy OK
    No errors occurred
    AccurateRip summary
    Track 1 accurately ripped (confidence 5) [787A0282] (AR v2)Track 2 accurately ripped (confidence 5) [05559363] (AR v2)Track 3 accurately ripped (confidence 5) [7BA256E4] (AR v2)
    All tracks accurately ripped
    End of status report
    ---- CUETools DB Plugin V2.1.6
    [CTDB TOCID: t0voWoGk.KzXKcC5fc0dDZ6XsAY-] foundSubmit result: t0voWoGk.KzXKcC5fc0dDZ6XsAY- has been confirmedTrack | CTDB Status 1 | (2/2) Accurately ripped 2 | (2/2) Accurately ripped 3 | (2/2) Accurately ripped
    ==== Log checksum C2C0699843B18F08C80E8E66FA66FF526391C58FED9F820CFAD1F5263FAFE687 ====

    Содержание индексной карты (.cue)

    REM GENRE FolkREM DATE 1990REM DISCID 16023003REM COMMENT "ExactAudioCopy v1.2"PERFORMER "The Notting Hillbillies"TITLE "Your Own Sweet Way (CDS)"FILE "The Notting Hillbillies - Your Own Sweet Way (CDS).flac" WAVE  TRACK 01 AUDIO    TITLE "Your Own Sweet Way"    PERFORMER "The Notting Hillbillies"    INDEX 00 00:00:00    INDEX 01 00:00:33  TRACK 02 AUDIO    TITLE "Bewildered"    PERFORMER "The Notting Hillbillies"    INDEX 00 03:49:13    INDEX 01 03:50:33  TRACK 03 AUDIO    TITLE "That's Where I Belong"    PERFORMER "The Notting Hillbillies"    INDEX 00 06:28:03    INDEX 01 06:29:33

    (1990) Missing...Presumed Having A Good Time [Vertigo – 842 671-2] • [Germany]

    Год: 1990 (200?)
    Лейбл: Vertigo
    Каталожный номер: 842 671-2
    Штрих-код: 0 42284 26712 0
    Матрица диска: 00422 842 671–2 03 + 50972943 | MADE IN GERMANY BY EDC
    Источник: Alex Fal
    Продолжительность: 00:40:44
    Треклист:
    [01] Railroad Worksong [05:30]
    [02] Bewildered [02:37]
    [03] Your Own Sweet Way [04:32]
    [04] Run Me Down [02:26]
    [05] One Way Gal [03:10]
    [06] Blues Stay Away From Me [03:51]
    [07] Will You Miss Me [03:52]
    [08] Please Baby [03:50]
    [09] Weapon Of Prayer [03:11]
    [10] That's Where I Belong [02:52]
    [11] Feel Like Going Home [04:53]

    Лог создания рипа

    Exact Audio Copy V1.2 from 12. August 2016
    EAC extraction logfile from 12. August 2018, 19:58
    The Notting Hillbillies / Missing - Presumed having a good time
    Used drive : ASUS SDRW-08D1S-U Adapter: 1 ID: 1
    Read mode : SecureUtilize accurate stream : YesDefeat audio cache : YesMake use of C2 pointers : No
    Read offset correction : 667Overread into Lead-In and Lead-Out : NoFill up missing offset samples with silence : YesDelete leading and trailing silent blocks : NoNull samples used in CRC calculations : YesUsed interface : Native Win32 interface for Win NT & 2000
    Used output format : User Defined EncoderSelected bitrate : 128 kBit/sQuality : HighAdd ID3 tag : NoCommand line compressor : C:\Program Files (x86)\Exact Audio Copy\Flac\flac.exeAdditional command line options : -V -8 -T "Date=%year%" -T "Genre=%genre%" %source%
    TOC of the extracted CD
    Track | Start | Length | Start sector | End sector --------------------------------------------------------- 1 | 0:00.33 | 5:29.47 | 33 | 24754 2 | 5:30.05 | 2:37.30 | 24755 | 36559 3 | 8:07.35 | 4:32.33 | 36560 | 56992 4 | 12:39.68 | 2:25.67 | 56993 | 67934 5 | 15:05.60 | 3:10.18 | 67935 | 82202 6 | 18:16.03 | 3:50.47 | 82203 | 99499 7 | 22:06.50 | 3:52.10 | 99500 | 116909 8 | 25:58.60 | 3:50.30 | 116910 | 134189 9 | 29:49.15 | 3:10.50 | 134190 | 148489 10 | 32:59.65 | 2:51.65 | 148490 | 161379 11 | 35:51.55 | 4:52.58 | 161380 | 183337
    Range status and errors
    Selected range
    Filename C:\Users\Олег\Desktop\The Notting Hillbillies\The Notting Hillbillies - Missing - Presumed having a good time.wav
    Peak level 100.0 % Extraction speed 3.6 X Range quality 99.9 % Test CRC 375A6C5A Copy CRC 375A6C5A Copy OK
    No errors occurred
    AccurateRip summary
    Track 1 accurately ripped (confidence 33) [374498F0] (AR v2)Track 2 accurately ripped (confidence 34) [243A7340] (AR v2)Track 3 accurately ripped (confidence 34) [7501454B] (AR v2)Track 4 accurately ripped (confidence 34) [BAD22C64] (AR v2)Track 5 accurately ripped (confidence 34) [88A38DE9] (AR v2)Track 6 accurately ripped (confidence 34) [62804DB0] (AR v2)Track 7 accurately ripped (confidence 34) [2EA71E9F] (AR v2)Track 8 accurately ripped (confidence 34) [8E79FBD8] (AR v2)Track 9 accurately ripped (confidence 34) [3671FF13] (AR v2)Track 10 accurately ripped (confidence 34) [9EFB7C03] (AR v2)Track 11 accurately ripped (confidence 34) [5B2AA188] (AR v2)
    All tracks accurately ripped
    End of status report
    ---- CUETools DB Plugin V2.1.6
    [CTDB TOCID: nVbDkXOfzNSMQHQqoZimPJqf6ag-] foundSubmit result: nVbDkXOfzNSMQHQqoZimPJqf6ag- has been confirmedTrack | CTDB Status 1 | (833/864) Accurately ripped 2 | (844/864) Accurately ripped 3 | (836/864) Accurately ripped 4 | (841/864) Accurately ripped 5 | (837/864) Accurately ripped 6 | (839/864) Accurately ripped 7 | (837/864) Accurately ripped 8 | (836/864) Accurately ripped 9 | (835/864) Accurately ripped 10 | (840/864) Accurately ripped 11 | (833/864) Accurately ripped
    ==== Log checksum 10D4FDD89F72B215216380976DD629D7E314D913352237042A3643B029FBEE51 ====

    Содержание индексной карты (.cue)

    REM GENRE FolkREM DATE 1990REM DISCID 99098C0BREM COMMENT "ExactAudioCopy v1.2"PERFORMER "The Notting Hillbillies"TITLE "Missing...Presumed Having A Good Time"FILE "The Notting Hillbillies - Missing...Presumed Having A Good Time.flac" WAVE  TRACK 01 AUDIO    TITLE "Railroad Worksong"    PERFORMER "The Notting Hillbillies"    INDEX 00 00:00:00    INDEX 01 00:00:33  TRACK 02 AUDIO    TITLE "Bewildered"    PERFORMER "The Notting Hillbillies"    INDEX 00 05:28:37    INDEX 01 05:30:05  TRACK 03 AUDIO    TITLE "Your Own Sweet Way"    PERFORMER "The Notting Hillbillies"    INDEX 00 08:06:37    INDEX 01 08:07:35  TRACK 04 AUDIO    TITLE "Run Me Down"    PERFORMER "The Notting Hillbillies"    INDEX 00 12:39:13    INDEX 01 12:39:68  TRACK 05 AUDIO    TITLE "One Way Gal"    PERFORMER "The Notting Hillbillies"    INDEX 00 15:04:37    INDEX 01 15:05:60  TRACK 06 AUDIO    TITLE "Blues Stay Away From Me"    PERFORMER "The Notting Hillbillies"    INDEX 00 18:14:68    INDEX 01 18:16:03  TRACK 07 AUDIO    TITLE "Will You Miss Me"    PERFORMER "The Notting Hillbillies"    INDEX 00 22:06:27    INDEX 01 22:06:50  TRACK 08 AUDIO    TITLE "Please Baby"    PERFORMER "The Notting Hillbillies"    INDEX 00 25:56:62    INDEX 01 25:58:60  TRACK 09 AUDIO    TITLE "Weapon Of Prayer"    PERFORMER "The Notting Hillbillies"    INDEX 00 29:48:37    INDEX 01 29:49:15  TRACK 10 AUDIO    TITLE "That's Where I Belong"    PERFORMER "The Notting Hillbillies"    INDEX 00 32:58:20    INDEX 01 32:59:65  TRACK 11 AUDIO    TITLE "Feel Like Going Home"    PERFORMER "The Notting Hillbillies"    INDEX 00 35:50:62    INDEX 01 35:51:55

    (1990) Missing...Presumed Having A Good Time [Warner Bros. Records – 9 26147-2] • [USA]

    Год: 1990 (199?)
    Лейбл: Warner Bros. Records
    Каталожный номер: 9 26147-2
    Штрих-код: 0 7599–26147–2 6
    Матрица диска: 1 26147–2 SRC+02 | M3S6
    Источник: s_gordey
    Продолжительность: 00:40:43
    Треклист:
    [01] Railroad Worksong [05:29]
    [02] Bewildered [02:37]
    [03] Your Own Sweet Way [04:33]
    [04] Run Me Down [02:26]
    [05] One Way Gal [03:10]
    [06] Blues Stay Away From Me [03:51]
    [07] Will You Miss Me [03:52]
    [08] Please Baby [03:50]
    [09] Weapon Of Prayer [03:10]
    [10] That's Where I Belong [02:52]
    [11] Feel Like Going Home [04:52]

    Лог создания рипа

    Exact Audio Copy V1.3 from 2. September 2016
    Отчёт EAC об извлечении, выполненном 25. октября 2018, 20:36
    The Notting Hillbillies / Missing... Presumed Having A Good Time
    Дисковод: PLEXTOR DVDR PX-716A Adapter: 1 ID: 0
    Режим чтения : ДостоверностьИспользование точного потока : ДаОтключение кэша аудио : ДаИспользование указателей C2 : Нет
    Коррекция смещения при чтении : 30Способность читать области Lead-in и Lead-out : ДаЗаполнение пропущенных сэмплов тишиной : ДаУдаление блоков с тишиной в начале и конце : НетПри вычислениях CRC использовались нулевые сэмплы : ДаИнтерфейс : Встроенный Win32-интерфейс для Win NT/2000
    Выходной формат : Пользовательский кодировщикВыбранный битрейт : 1024 kBit/sКачество : ВысокийДобавление ID3-тега : НетУтилита сжатия : C:\Program Files (x86)\Exact Audio Copy\FLAC\FLAC.EXEДополнительные параметры : -V -8 %source%
    TOC извлечённого CD
    Трек | Старт | Длительность | Начальный сектор | Конечный сектор --------------------------------------------------------------------- 1 | 0:00.32 | 5:28.58 | 32 | 24689 2 | 5:29.15 | 2:37.30 | 24690 | 36494 3 | 8:06.45 | 4:32.47 | 36495 | 56941 4 | 12:39.17 | 2:25.55 | 56942 | 67871 5 | 15:04.72 | 3:10.05 | 67872 | 82126 6 | 18:15.02 | 3:51.20 | 82127 | 99471 7 | 22:06.22 | 3:52.10 | 99472 | 116881 8 | 25:58.32 | 3:50.35 | 116882 | 134166 9 | 29:48.67 | 3:10.35 | 134167 | 148451 10 | 32:59.27 | 2:51.73 | 148452 | 161349 11 | 35:51.25 | 4:52.15 | 161350 | 183264
    Характеристики диапазона извлечения и сообщения об ошибках
    Выбранный диапазон
    Имя файла D:\SSDdata\Music\1990 - Missing... Presumed Having A Good Time (Warner Bros. 9 26147-2 US, Flac)\The Notting Hillbillies - Missing... Presumed Having A Good Time.wav
    Пиковый уровень 100.0 % Скорость извлечения 1.9 X Качество диапазона 99.9 % CRC теста B096724B CRC копии B096724B Копирование... OK
    Ошибок не произошло
    AccurateRip: сводка
    Трек 1 : извлечено точно (доверие 61) [2EBBC825] (AR v2)Трек 2 : извлечено точно (доверие 63) [E6B3AAC6] (AR v2)Трек 3 : извлечено точно (доверие 64) [5AF45F8D] (AR v2)Трек 4 : извлечено точно (доверие 65) [B147F618] (AR v2)Трек 5 : извлечено точно (доверие 62) [56A8869F] (AR v2)Трек 6 : извлечено точно (доверие 64) [A35F2043] (AR v2)Трек 7 : извлечено точно (доверие 64) [D3D1018F] (AR v2)Трек 8 : извлечено точно (доверие 64) [976A05FC] (AR v2)Трек 9 : извлечено точно (доверие 64) [29559651] (AR v2)Трек 10 : извлечено точно (доверие 63) [DFD923F5] (AR v2)Трек 11 : извлечено точно (доверие 63) [C140FD2A] (AR v2)
    Все треки извлечены точно
    Конец отчёта
    ---- CUETools DB Plugin V2.1.6
    [CTDB TOCID: EPSoG.7ax7btgEiqq4NBKnWRBac-] foundSubmit result: EPSoG.7ax7btgEiqq4NBKnWRBac- has been confirmedTrack | CTDB Status 1 | (201/211) Accurately ripped 2 | (203/211) Accurately ripped 3 | (202/211) Accurately ripped 4 | (202/211) Accurately ripped 5 | (200/211) Accurately ripped 6 | (201/211) Accurately ripped 7 | (198/211) Accurately ripped 8 | (200/211) Accurately ripped 9 | (199/211) Accurately ripped 10 | (201/211) Accurately ripped 11 | (197/211) Accurately ripped
    ==== Контрольная сумма отчёта 7D383F5B66CFFF8BCBE4742B9BB3F60F30DBBF61ADF3F316DE9F07B9B5E4D040 ====

    Содержание индексной карты (.cue)

    REM GENRE FolkREM DATE 1990REM DISCID 94098B0BREM COMMENT "ExactAudioCopy v1.3"PERFORMER "The Notting Hillbillies"TITLE "Missing...Presumed Having A Good Time"FILE "The Notting Hillbillies - Missing...Presumed Having A Good Time.flac" WAVE  TRACK 01 AUDIO    TITLE "Railroad Worksong"    PERFORMER "The Notting Hillbillies"    INDEX 00 00:00:00    INDEX 01 00:00:32  TRACK 02 AUDIO    TITLE "Bewildered"    PERFORMER "The Notting Hillbillies"    INDEX 00 05:28:02    INDEX 01 05:29:15  TRACK 03 AUDIO    TITLE "Your Own Sweet Way"    PERFORMER "The Notting Hillbillies"    INDEX 00 08:04:52    INDEX 01 08:06:45  TRACK 04 AUDIO    TITLE "Run Me Down"    PERFORMER "The Notting Hillbillies"    INDEX 00 12:37:45    INDEX 01 12:39:17  TRACK 05 AUDIO    TITLE "One Way Gal"    PERFORMER "The Notting Hillbillies"    INDEX 00 15:02:72    INDEX 01 15:04:72  TRACK 06 AUDIO    TITLE "Blues Stay Away From Me"    PERFORMER "The Notting Hillbillies"    INDEX 00 18:14:17    INDEX 01 18:15:02  TRACK 07 AUDIO    TITLE "Will You Miss Me"    PERFORMER "The Notting Hillbillies"    INDEX 00 22:04:37    INDEX 01 22:06:22  TRACK 08 AUDIO    TITLE "Please Baby"    PERFORMER "The Notting Hillbillies"    INDEX 00 25:56:10    INDEX 01 25:58:32  TRACK 09 AUDIO    TITLE "Weapon Of Prayer"    PERFORMER "The Notting Hillbillies"    INDEX 00 29:48:00    INDEX 01 29:48:67  TRACK 10 AUDIO    TITLE "That's Where I Belong"    PERFORMER "The Notting Hillbillies"    INDEX 00 32:57:20    INDEX 01 32:59:27  TRACK 11 AUDIO    TITLE "Feel Like Going Home"    PERFORMER "The Notting Hillbillies"    INDEX 00 35:49:55    INDEX 01 35:51:25

    (1990) Feel Like Going Home (CDS) [Vertigo – NHBCD 2] • [UK]

    Год: 1990
    Лейбл: Vertigo
    Каталожный номер: NHBCD 2
    Штрих-код: 0 42287 53012 2
    Матрица диска: NHBCD 2 10111651 01 % | MADE IN U.K. BY PDO
    Источник: Alex Fal
    Продолжительность: 00:10:44
    Треклист:
    [01] Feel Like Going Home [04:55]
    [02] Lonesome Wind Blues [02:39]
    [03] One Way Gal [03:10]

    Лог создания рипа

    Exact Audio Copy V1.2 from 12. August 2016
    EAC extraction logfile from 5. August 2018, 16:32
    The Notting Hillbillies / Feel Like Going Home
    Used drive : ASUS SDRW-08D1S-U Adapter: 1 ID: 1
    Read mode : SecureUtilize accurate stream : YesDefeat audio cache : YesMake use of C2 pointers : No
    Read offset correction : 667Overread into Lead-In and Lead-Out : NoFill up missing offset samples with silence : YesDelete leading and trailing silent blocks : NoNull samples used in CRC calculations : YesUsed interface : Native Win32 interface for Win NT & 2000
    Used output format : User Defined EncoderSelected bitrate : 128 kBit/sQuality : HighAdd ID3 tag : NoCommand line compressor : C:\Program Files (x86)\Exact Audio Copy\Flac\flac.exeAdditional command line options : -V -8 -T "Date=%year%" -T "Genre=%genre%" %source%
    TOC of the extracted CD
    Track | Start | Length | Start sector | End sector --------------------------------------------------------- 1 | 0:00.32 | 4:54.53 | 32 | 22134 2 | 4:55.10 | 2:39.05 | 22135 | 34064 3 | 7:34.15 | 3:09.62 | 34065 | 48301
    Range status and errors
    Selected range
    Filename C:\Users\Олег\Desktop\The Notting Hillbillies - Feel Like Going Home\The Notting Hillbillies - Feel Like Going Home.wav
    Peak level 91.2 % Extraction speed 2.8 X Range quality 100.0 % Test CRC 6D496763 Copy CRC 6D496763 Copy OK
    No errors occurred
    AccurateRip summary
    Track 1 accurately ripped (confidence 3) [8E268BEB] (AR v2)Track 2 accurately ripped (confidence 3) [46D82678] (AR v2)Track 3 accurately ripped (confidence 3) [3A33763A] (AR v2)
    All tracks accurately ripped
    End of status report
    ---- CUETools DB Plugin V2.1.6
    [CTDB TOCID: 7RkIvPqDSsHzzgzFBrUuFE3QWxU-] foundSubmit result: already submittedTrack | CTDB Status 1 | (1/1) Accurately ripped 2 | (1/1) Accurately ripped 3 | (1/1) Accurately ripped
    ==== Log checksum E379593424EDA211CF729E1E87647D082F4D6FF3F33408CBC42ADAB3C75B59CC ====

    Содержание индексной карты (.cue)

    REM GENRE FolkREM DATE 1990REM DISCID 23028403REM COMMENT "ExactAudioCopy v1.2"PERFORMER "The Notting Hillbillies"TITLE "Feel Like Going Home (CDS)"FILE "The Notting Hillbillies - Feel Like Going Home (CDS).flac" WAVE  TRACK 01 AUDIO    TITLE "Feel Like Going Home"    PERFORMER "The Notting Hillbillies"    INDEX 00 00:00:00    INDEX 01 00:00:32  TRACK 02 AUDIO    TITLE "Lonesome Wind Blues"    PERFORMER "The Notting Hillbillies"    INDEX 00 04:52:45    INDEX 01 04:55:10  TRACK 03 AUDIO    TITLE "One Way Gal"    PERFORMER "The Notting Hillbillies"    INDEX 00 07:32:32    INDEX 01 07:34:15
    (Rock, Blues Rock) Dire Straits - Дискография (92CD) - 1978-1998, FLAC (image+.cue), lossless
    (Rock, Blues Rock, Folk Rock, Country, Acoustic) Mark Knopfler - Дискография и совместные проекты с Chet Atkins, Emmylou Harris и Evelyn Glennie (82CD) - 1983-2016, FLAC, WavPack (image+.cue), lossless
    (Rock, Blues Rock, Folk Rock, Pop Rock) John Illsley - Дискография и совместный проект с Greg Pearle (14CD) - 1984-2016, FLAC (image+.cue), lossless
    (Folk, Folk Rock, Blues Rock, Americana, Bluegrass, Soundtrack) Guy Fletcher - Дискография и совместные проекты с Brendan Croker и Rod Williams (6CD, 1 Digital Download) - 1988-2016, FLAC (image+.cue / tracks), lossless
    (Instrumental Rock, Instrumental Jazz) Richard Bennett - Дискография (6CD) - 2004-2018, FLAC (image+.cue), lossless
  • Folk-Rock (lossless) > (Folk Rock) [WEB] Alan Munson - One Man\'s Journey - 2018, FLAC (tracks), lossless
  • 29-Окт-2018 12:50

    Ranku



    Alan Munson

    One Man's Journey





    • Жанр: Folk Rock
    • Носитель: WEB
    • Год издания: 2018
    • Издатель: Sundazed Music
    • Страна: USA
    • Аудиокодек: FLAC (*.flac)
    • Тип рипа: tracks
    • Продолжительность: 00:48:25
    • Источник (спасибо): NBMus
    • WEB релиз: ссылка
    • Наличие сканов: front

    01 - In The Rain (00:04:33)
    02 - Sightly Sue (00:04:36)
    03 - I Need A Change (00:03:32)
    04 - Good Morning World (00:02:18)
    05 - Freedom (00:02:58)
    06 - The Sun Is Rising In Your Eyes (00:04:22)
    07 - Fences (00:03:58)
    08 - The Turtle (Moving On) (00:04:28)
    09 - A Visit From A Friend (00:04:17)
    10 - Sail Away Forever (00:03:19)
    11 - November (00:03:04)
    12 - For A Long Time (00:03:02)
    13 - Late Night Morning Coffee (00:03:52)

    -
    -

    • Замер динамического диапазона •

    foobar2000 1.3.9 / Замер динамического диапазона (DR) 1.1.1Дата отчёта:  2018-10-22 15:19:18
    --------------------------------------------------------------------------------Анализ: Alan Munson / One Man's Journey--------------------------------------------------------------------------------
    DR Пики RMS Продолжительность трека--------------------------------------------------------------------------------DR11 0.00 дБ -14.15 дБ 4:34 1-In The RainDR12 -0.08 дБ -15.55 дБ 4:36 2-Sightly SueDR9 -0.95 дБ -13.91 дБ 3:32 3-I Need A ChangeDR12 0.00 дБ -14.62 дБ 2:19 4-Good Morning WorldDR12 -0.89 дБ -15.34 дБ 2:58 5-FreedomDR13 0.00 дБ -16.24 дБ 4:22 6-The Sun Is Rising In Your EyesDR10 0.00 дБ -14.39 дБ 3:58 7-FencesDR12 0.00 дБ -15.15 дБ 4:29 8-The Turtle (Moving On)DR14 0.00 дБ -16.10 дБ 4:18 9-A Visit From A FriendDR11 0.00 дБ -13.54 дБ 3:19 10-Sail Away ForeverDR11 0.00 дБ -13.94 дБ 3:05 11-NovemberDR12 0.00 дБ -15.08 дБ 3:02 12-For A Long TimeDR11 0.00 дБ -14.04 дБ 3:53 13-Late Night Morning Coffee--------------------------------------------------------------------------------
    Количество треков: 13Реальные значения DR: DR11
    Частота: 44100 ГцКаналов: 2Разрядность: 16Битрейт: 775 кбит/сКодек: FLAC================================================================================
    -

    • Лог проверки качества •

    -----------------------
    DON'T MODIFY THIS FILE
    -----------------------
    PERFORMER: auCDtect Task Manager, ver. 1.5.1RC3 build 1.5.1.4Copyright (c) 2008-2010 y-soft. All rights reservedhttp://y-soft.org
    ANALYZER: auCDtect: CD records authenticity detector, version 0.8.2Copyright (c) 2004 Oleg Berngardt. All rights reserved.Copyright (c) 2004 Alexander Djourik. All rights reserved.
    FILE: 13 - Late Night Morning Coffee.flac Size: 22731664 Hash: 679D8E464A9BB26C730A457C4C206B92 Accuracy: -m0 Conclusion: CDDA 100% Signature: CBE11BF60FC53D8255D6F2037038CC5BB8027149FILE: 12 - For A Long Time.flac Size: 17054657 Hash: 0137C9F5548C243F26046EFC202EB551 Accuracy: -m0 Conclusion: CDDA 100% Signature: 722C6F1CC45778128353B0CBBC04801135F97FC3FILE: 11 - November.flac Size: 17504785 Hash: 2B947CEE6E0CD3CC2DB23A96622607CF Accuracy: -m0 Conclusion: CDDA 100% Signature: 727BD5C8C556358D4DE107AE97780E6C04F9D689FILE: 10 - Sail Away Forever.flac Size: 18891244 Hash: 20FC75438416103F52FA8BC8F556DAD8 Accuracy: -m0 Conclusion: CDDA 100% Signature: 05BB2F2206A8C7F96CD1639DBBBB8EE729DE747EFILE: 09 - A Visit From A Friend.flac Size: 24080698 Hash: B477C7DA16F814D690D662BD22BFD0EF Accuracy: -m0 Conclusion: CDDA 100% Signature: E9C3F5882F526549561DE79F73E4D2E3191CD255FILE: 08 - The Turtle (Moving On).flac Size: 26001711 Hash: E17B0ACCEF24622774E645DE074D7F7E Accuracy: -m0 Conclusion: CDDA 100% Signature: 328EAFDF20FE02673D2C78375A9BA684E28F9076FILE: 07 - Fences.flac Size: 22363692 Hash: 8C67E5D125A5AF8B7DEF49CB35031C5A Accuracy: -m0 Conclusion: CDDA 100% Signature: 0EB9AB65FE21CD9551F4D8AE8A5E9FD703CBFE15FILE: 06 - The Sun Is Rising In Your Eyes.flac Size: 25039367 Hash: D41A9C72CAAD55A3666677A6D37373BC Accuracy: -m0 Conclusion: CDDA 100% Signature: 436DBD784964ABE3751F23F2D04C03D287BC5FA9FILE: 05 - Freedom.flac Size: 17070774 Hash: 5F62456BF43D43C2C9691DFC34AC4AAE Accuracy: -m0 Conclusion: CDDA 100% Signature: 1BCFF66879D6CE5DB34B66938297EE3C541FD86BFILE: 04 - Good Morning World.flac Size: 13328174 Hash: A8D2ABA63590DD96316315A61BAE427A Accuracy: -m0 Conclusion: CDDA 100% Signature: 52F81930424B3CCB0266F1D75E57D13D5E02C9A5FILE: 03 - I Need A Change.flac Size: 19390487 Hash: 1F0BE9FED84CC05D8F9E4C844464508D Accuracy: -m0 Conclusion: CDDA 100% Signature: EDBC920A2E309A59C229019E80EADFFC857924CAFILE: 02 - Sightly Sue.flac Size: 26772277 Hash: 2964CF26B07085E2745F7DF14E704B83 Accuracy: -m0 Conclusion: CDDA 100% Signature: 76371C0AEA2A7F7A51CBE43660F4374BFE4B31FAFILE: 01 - In The Rain.flac Size: 26396118 Hash: 31163CF272DECCFB549AA7FF464FA704 Accuracy: -m0 Conclusion: CDDA 99% Signature: 21B01A4280530A55AB64477186CF51B40FF4FE17
    -
  • Folk-Rock (lossless) > (Contemporary Folk) [WEB] Seth Lakeman - The Well Worn Path - 2018, FLAC (tracks), lossless
  • 29-Окт-2018 12:23

    Ranku



    Seth Lakeman

    The Well Worn Path





    • Жанр: Contemporary Folk
    • Носитель: WEB
    • Год издания: 2018
    • Издатель: Cooking Vinyl
    • Страна: UK
    • Аудиокодек: FLAC (*.flac)
    • Тип рипа: tracks
    • Продолжительность: 00:51:29
    • Источник (спасибо): NBMus
    • WEB релиз: ссылка
    • Наличие сканов: front

    01 - Bright Smile (00:05:01)
    02 - She Never Blamed Him (00:04:09)
    03 - Educated Man (00:05:07)
    04 - Lend a Hand (00:04:33)
    05 - Drink 'Til I'm Dry (00:04:13)
    06 - Fitzsimmons' Fight (00:05:14)
    07 - Divided We Will Fall (00:03:59)
    08 - The Gloaming (00:04:57)
    09 - Dig New Ground (00:04:43)
    10 - Judge Not a Man (00:04:44)
    11 - Well Worn Path (00:04:42)
    -
    --

    • Лог проверки качества •

    -----------------------
    DON'T MODIFY THIS FILE
    -----------------------
    PERFORMER: auCDtect Task Manager, ver. 1.6.0 RC1 build 1.6.0.1Copyright (c) 2008-2010 y-soft. All rights reservedhttp://y-soft.org
    ANALYZER: auCDtect: CD records authenticity detector, version 0.8.2Copyright (c) 2004 Oleg Berngardt. All rights reserved.Copyright (c) 2004 Alexander Djourik. All rights reserved.
    FILE: 11 - Well Worn Path.flac Size: 22149116 Hash: E1B0F467F12BB8597AC6732EABEA01E6 Accuracy: -m0 Conclusion: CDDA 100% Signature: C84038D75B4716DF6B726AD3FCA56B197779999CFILE: 10 - Judge Not a Man.flac Size: 20633037 Hash: A863FA3CB66C81A4DF18D406EFFBD674 Accuracy: -m0 Conclusion: CDDA 99% Signature: 2B6B70C7B7631BBD6EE8014DA399900A886F65C2FILE: 09 - Dig New Ground.flac Size: 27976748 Hash: ED92F99AEA277274A67B63D99BA94FB7 Accuracy: -m0 Conclusion: CDDA 100% Signature: A4DE55C417DC4C6A83BA518D4236AC345E8658EEFILE: 08 - The Gloaming.flac Size: 23686547 Hash: B0A8792C44406BCAC4F3D2B6829D49D3 Accuracy: -m0 Conclusion: CDDA 100% Signature: 37556F2A96A2C8B20F9EEF845BB8CC82E152C943FILE: 07 - Divided We Will Fall.flac Size: 24538881 Hash: 65F26AA02CBC9C981D3325EE18DDD110 Accuracy: -m0 Conclusion: CDDA 100% Signature: 76BE1A7C72F4AA6A1AA0F5E19B2D8911F6ACB577FILE: 06 - Fitzsimmons' Fight.flac Size: 28770536 Hash: 39D3824198E64723EBD32EB2A6368A50 Accuracy: -m0 Conclusion: CDDA 100% Signature: F95AFA29B6F0955C1A5DF059210E9C2109D2B164FILE: 05 - Drink 'Til I'm Dry.flac Size: 23902274 Hash: 5BF0D149AF25435A3AAE71F36727B683 Accuracy: -m0 Conclusion: CDDA 100% Signature: D5FA5844063255299D536FEBE915F07D8FD41CD2FILE: 04 - Lend a Hand.flac Size: 21246921 Hash: 76A5B061789D160023E5B2798F313A69 Accuracy: -m0 Conclusion: CDDA 100% Signature: 6A69AE5436D17D3C4EB81D6405CF029AF1CF4E52FILE: 03 - Educated Man.flac Size: 27447849 Hash: 39C99D2DE5A29D80B72073570E41884B Accuracy: -m0 Conclusion: CDDA 100% Signature: A844E233C4A55F33B40E3B6084A361126D431747FILE: 02 - She Never Blamed Him.flac Size: 25513681 Hash: A97FF24A5D4FF58A70B67B2ADF873313 Accuracy: -m0 Conclusion: CDDA 99% Signature: EB374D5FE6F517063896C1D9590FA57B8A33A676FILE: 01 - Bright Smile.flac Size: 29713347 Hash: D8AF91729200C6ECDE2493D068DCCDA1 Accuracy: -m0 Conclusion: CDDA 100% Signature: 109EE9625141540E64827099A6D46132327B8172
    -
  • Folk-Rock (lossless) > (Folk-Rock) [CD] Tim Buckley - Greetings From West Hollywood - 2017, FLAC (image+.cue), lossless
  • 22-Окт-2018 23:41

    Ranku


    Tim Buckley

    Greetings From West Hollywood




    • Жанр: Folk-Rock
    • Носитель: CD
    • Год издания: 1969 (2017)
    • Издатель (лейбл) Edsel Records
    • Номер по каталогу: EDSL 0010
    • Страна исполнителя (группы): USA
    • Аудиокодек: FLAC (*.flac)
    • Тип рипа: image+.cue
    • Продолжительность: 01:08:34
    • Источник: rockasteria ®
    • Наличие сканов: да

    01. Buzzin' Fly (00:06:18)
    02. Chase The Blues Away (00:06:31)
    03. I Had A Talk With My Woman (00:07:23)
    04. Blue Melody (00:05:41)
    05. Nobody Walkin' (00:12:26)
    06. Venice Mating Call (00:03:03)
    07. I Don't Need It To Rain (00:08:36)
    08. Driftin' (00:07:56)
    09. Gypsy Woman (00:10:35)
    -

    • Содержание индексной карты

    PERFORMER "Tim Buckley"TITLE "Greetings From West Hollywood"SONGWRITER "Tim Buckley"REM DATE "1969"REM GENRE "Rock"REM COMMENT "EZ CD Audio Converter 7.1.5 [32-bit]"REM REPLAYGAIN_ALBUM_GAIN -0.03 dBREM REPLAYGAIN_ALBUM_PEAK 0.851562FILE "Tim Buckley - Greetings From West Hollywood.flac" WAVE  TRACK 01 AUDIO    REM REPLAYGAIN_TRACK_GAIN -0.32 dB    REM REPLAYGAIN_TRACK_PEAK 0.762848    TITLE "Buzzin' Fly"    INDEX 01 00:00:00  TRACK 02 AUDIO    REM REPLAYGAIN_TRACK_GAIN +0.58 dB    REM REPLAYGAIN_TRACK_PEAK 0.799866    TITLE "Chase The Blues Away"    INDEX 01 06:18:27  TRACK 03 AUDIO    REM REPLAYGAIN_TRACK_GAIN +1.09 dB    REM REPLAYGAIN_TRACK_PEAK 0.773529    TITLE "I Had A Talk With My Woman"    INDEX 01 12:50:14  TRACK 04 AUDIO    REM REPLAYGAIN_TRACK_GAIN +1.15 dB    REM REPLAYGAIN_TRACK_PEAK 0.703430    TITLE "Blue Melody"    INDEX 01 20:13:15  TRACK 05 AUDIO    REM REPLAYGAIN_TRACK_GAIN -1.58 dB    REM REPLAYGAIN_TRACK_PEAK 0.803162    TITLE "Nobody Walkin'"    INDEX 01 25:54:29  TRACK 06 AUDIO    REM REPLAYGAIN_TRACK_GAIN -0.31 dB    REM REPLAYGAIN_TRACK_PEAK 0.765717    TITLE "Venice Mating Call"    INDEX 01 38:21:08  TRACK 07 AUDIO    REM REPLAYGAIN_TRACK_GAIN -1.18 dB    REM REPLAYGAIN_TRACK_PEAK 0.851562    TITLE "I Don't Need It To Rain"    INDEX 01 41:24:58  TRACK 08 AUDIO    REM REPLAYGAIN_TRACK_GAIN +2.82 dB    REM REPLAYGAIN_TRACK_PEAK 0.802704    TITLE "Driftin'"    INDEX 01 50:01:54  TRACK 09 AUDIO    REM REPLAYGAIN_TRACK_GAIN +1.94 dB    REM REPLAYGAIN_TRACK_PEAK 0.795593    TITLE "Gypsy Woman"    INDEX 01 57:58:40
    -

    • Лог создания рипа

    EZ CD Audio Converter 7.1.5 [32-bit]
    Log creation date: Jun 6 2018 18:51
    Device: [ D: ] Optiarc DVD-ROM DDU1671S 1H17
    Profile : Disc ImageRead mode : NormalC2 pointers : DisabledAccurateCDDA : EnabledSoftware synchronization : DisabledDrive read cache : EnabledVerify audio : EnabledDrive spin-up : DisabledSample offset : 0
    Calculate ReplayGain : Enabled
    Output format : .flac | Free Lossless Audio CodecEncoder : FLAC 1.3.2Bit depth : AutoChannels : AutoSample rate : AutoCompression level : 8
    Track Start Length Start sector End sector------------------------------------------------------------- [X] 01 00:00.00 06:18.27 0 28376 [X] 02 06:18.27 06:31.62 28377 57763 [X] 03 12:50.14 07:23.01 57764 90989 [X] 04 20:13.15 05:41.14 90990 116578 [X] 05 25:54.29 12:26.54 116579 172582 [X] 06 38:21.08 03:03.50 172583 186357 [X] 07 41:24.58 08:36.71 186358 225128 [X] 08 50:01.54 07:56.61 225129 260889 [X] 09 57:58.40 10:35.39 260890 308553-------------------------------------------------------------
    Summary-------
    9 total tracks9 copied successfully0 copied with errors0 failed
    Track Status CRC (copy) CRC (test) Filename------------------------------------------------------ 1 Success 4F6C241F 4F6C241F "Tim Buckley - Greetings From West Hollywood.flac" 2 Success 0F1CEE89 0F1CEE89 "Tim Buckley - Greetings From West Hollywood.flac" 3 Success 2C8883A9 2C8883A9 "Tim Buckley - Greetings From West Hollywood.flac" 4 Success 5D2EFD24 5D2EFD24 "Tim Buckley - Greetings From West Hollywood.flac" 5 Success D8D85B09 D8D85B09 "Tim Buckley - Greetings From West Hollywood.flac" 6 Success DD4C1E41 DD4C1E41 "Tim Buckley - Greetings From West Hollywood.flac" 7 Success 188729FB 188729FB "Tim Buckley - Greetings From West Hollywood.flac" 8 Success 1F51AAE9 1F51AAE9 "Tim Buckley - Greetings From West Hollywood.flac" 9 Success 1DA962AA 1DA962AA "Tim Buckley - Greetings From West Hollywood.flac"
    Details-------
    Track 1
    Filename "Tim Buckley - Greetings From West Hollywood.flac"
    Begin 1st pass (copy)
    Begin 2nd pass (test)
    CRC (test) : 4F6C241F CRC (copy) : 4F6C241F
    Finished successfully
    Track 2
    Filename "Tim Buckley - Greetings From West Hollywood.flac"
    Begin 1st pass (copy)
    Begin 2nd pass (test)
    CRC (test) : 0F1CEE89 CRC (copy) : 0F1CEE89
    Finished successfully
    Track 3
    Filename "Tim Buckley - Greetings From West Hollywood.flac"
    Begin 1st pass (copy)
    Begin 2nd pass (test)
    CRC (test) : 2C8883A9 CRC (copy) : 2C8883A9
    Finished successfully
    Track 4
    Filename "Tim Buckley - Greetings From West Hollywood.flac"
    Begin 1st pass (copy)
    Begin 2nd pass (test)
    CRC (test) : 5D2EFD24 CRC (copy) : 5D2EFD24
    Finished successfully
    Track 5
    Filename "Tim Buckley - Greetings From West Hollywood.flac"
    Begin 1st pass (copy)
    Begin 2nd pass (test)
    CRC (test) : D8D85B09 CRC (copy) : D8D85B09
    Finished successfully
    Track 6
    Filename "Tim Buckley - Greetings From West Hollywood.flac"
    Begin 1st pass (copy)
    Begin 2nd pass (test)
    CRC (test) : DD4C1E41 CRC (copy) : DD4C1E41
    Finished successfully
    Track 7
    Filename "Tim Buckley - Greetings From West Hollywood.flac"
    Begin 1st pass (copy)
    Begin 2nd pass (test)
    CRC (test) : 188729FB CRC (copy) : 188729FB
    Finished successfully
    Track 8
    Filename "Tim Buckley - Greetings From West Hollywood.flac"
    Begin 1st pass (copy)
    Begin 2nd pass (test)
    CRC (test) : 1F51AAE9 CRC (copy) : 1F51AAE9
    Finished successfully
    Track 9
    Filename "Tim Buckley - Greetings From West Hollywood.flac"
    Begin 1st pass (copy)
    Begin 2nd pass (test)
    CRC (test) : 1DA962AA CRC (copy) : 1DA962AA
    Finished successfully
    --
  • Folk-Rock (lossless) > (Folk-Rock) [CD] Marc Ellington - A Question Of Roads - 1972 (2010), FLAC (image+.cue), lossless
  • 22-Окт-2018 23:41

    Ranku


    Marc Ellington

    A Question Of Roads




    • Жанр: Folk-Rock
    • Носитель: CD
    • Год издания: 1972 (2010)
    • Издатель (лейбл) Big Pink
    • Страна производитель диска: S.Korea
    • Страна исполнителя (группы): UK
    • Аудиокодек: FLAC (*.flac)
    • Тип рипа: image+.cue
    • Продолжительность: 00:39:25
    • Источник (релизер): rockasteria ®
    • Наличие сканов: да

    01. Four Rode By (00:02:13)
    02. No Deposit, No Return (00:03:13)
    03. Never Again (00:04:45)
    04. Please Be My Friend (00:03:45)
    05. Jacobite Lament (A Celtic Dream) (00:03:25)
    06. Royal Blues (00:03:08)
    07. Question Marc (Better Days Ahead) (00:02:39)
    08. You Finally Found You (00:03:02)
    09. Past Master (00:02:17)
    10. Open The Door Homer (00:04:04)
    11. A Question Of Roads (00:04:39)
    12. Six Days On The Road (00:02:09)
    -

    • Содержание индексной карты

    PERFORMER "Marc Ellington"TITLE "A Question Of Roads"REM DATE "1972"REM GENRE "Rock"REM COMMENT "EZ CD Audio Converter 7.1.6 [32-bit]"REM REPLAYGAIN_ALBUM_GAIN -3.27 dBREM REPLAYGAIN_ALBUM_PEAK 0.995636FILE "Marc Ellington - A Question Of Roads.flac" WAVE  TRACK 01 AUDIO    REM REPLAYGAIN_TRACK_GAIN -3.90 dB    REM REPLAYGAIN_TRACK_PEAK 0.986938    TITLE "Four Rode By"    SONGWRITER "Traditional"    INDEX 01 00:00:00  TRACK 02 AUDIO    REM REPLAYGAIN_TRACK_GAIN -4.79 dB    REM REPLAYGAIN_TRACK_PEAK 0.989227    TITLE "No Deposit, No Return"    SONGWRITER "Marc Ellington"    INDEX 01 02:13:64  TRACK 03 AUDIO    REM REPLAYGAIN_TRACK_GAIN -2.14 dB    REM REPLAYGAIN_TRACK_PEAK 0.989532    TITLE "Never Again"    SONGWRITER "Karen Ellington, Marc Ellington"    INDEX 01 05:27:62  TRACK 04 AUDIO    REM REPLAYGAIN_TRACK_GAIN -2.77 dB    REM REPLAYGAIN_TRACK_PEAK 0.976685    TITLE "Please Be My Friend"    SONGWRITER "Iain Matthews"    INDEX 01 10:13:23  TRACK 05 AUDIO    REM REPLAYGAIN_TRACK_GAIN +0.40 dB    REM REPLAYGAIN_TRACK_PEAK 0.976135    TITLE "Jacobite Lament (A Celtic Dream)"    SONGWRITER "Marc Ellington"    INDEX 01 13:58:70  TRACK 06 AUDIO    REM REPLAYGAIN_TRACK_GAIN -4.05 dB    REM REPLAYGAIN_TRACK_PEAK 0.987457    TITLE "Royal Blues"    SONGWRITER "Marc Ellington"    INDEX 01 17:24:60  TRACK 07 AUDIO    REM REPLAYGAIN_TRACK_GAIN -4.00 dB    REM REPLAYGAIN_TRACK_PEAK 0.992126    TITLE "Question Marc (Better Days Ahead)"    SONGWRITER "Marc Ellington"    INDEX 01 20:33:01  TRACK 08 AUDIO    REM REPLAYGAIN_TRACK_GAIN -2.50 dB    REM REPLAYGAIN_TRACK_PEAK 0.980103    TITLE "You Finally Found You"    SONGWRITER "Marc Ellington"    INDEX 01 23:12:36  TRACK 09 AUDIO    REM REPLAYGAIN_TRACK_GAIN -3.02 dB    REM REPLAYGAIN_TRACK_PEAK 0.990173    TITLE "Past Master"    SONGWRITER "Marc Ellington"    INDEX 01 26:15:28  TRACK 10 AUDIO    REM REPLAYGAIN_TRACK_GAIN -4.18 dB    REM REPLAYGAIN_TRACK_PEAK 0.995636    TITLE "Open The Door Homer"    SONGWRITER "Bob Dylan"    INDEX 01 28:32:42  TRACK 11 AUDIO    REM REPLAYGAIN_TRACK_GAIN -2.71 dB    REM REPLAYGAIN_TRACK_PEAK 0.987457    TITLE "A Question Of Roads"    SONGWRITER "Marc Ellington"    INDEX 01 32:36:42  TRACK 12 AUDIO    REM REPLAYGAIN_TRACK_GAIN -4.51 dB    REM REPLAYGAIN_TRACK_PEAK 0.985687    TITLE "Six Days On The Road"    SONGWRITER "Carl Montgomery, Earl Green"    INDEX 01 37:16:01
    -

    • Лог создания рипа

    EZ CD Audio Converter 7.1.6 [32-bit]
    Log creation date: Aug 5 2018 11:22
    I:\Uploads-Marios\Marc Ellington - A Question Of Roads 1972 (Big Pink 2010)
    Device: [ D: ] Optiarc DVD-ROM DDU1671S 1H17
    Profile : Disc ImageRead mode : NormalC2 pointers : DisabledAccurateCDDA : EnabledSoftware synchronization : DisabledDrive read cache : EnabledVerify audio : EnabledDrive spin-up : DisabledSample offset : 0
    Calculate ReplayGain : Enabled
    Output format : .flac | Free Lossless Audio CodecEncoder : FLAC 1.3.2Bit depth : AutoChannels : AutoSample rate : AutoCompression level : 8
    Track Start Length Start sector End sector------------------------------------------------------------- [X] 01 00:00.00 02:13.64 0 10038 [X] 02 02:13.64 03:13.73 10039 24586 [X] 03 05:27.62 04:45.36 24587 45997 [X] 04 10:13.23 03:45.47 45998 62919 [X] 05 13:58.70 03:25.65 62920 78359 [X] 06 17:24.60 03:08.16 78360 92475 [X] 07 20:33.01 02:39.35 92476 104435 [X] 08 23:12.36 03:02.67 104436 118152 [X] 09 26:15.28 02:17.14 118153 128441 [X] 10 28:32.42 04:04.00 128442 146741 [X] 11 32:36.42 04:39.34 146742 167700 [X] 12 37:16.01 02:09.06 167701 177381-------------------------------------------------------------
    Summary-------
    12 total tracks12 copied successfully0 copied with errors0 failed
    Track Status CRC (copy) CRC (test) Filename------------------------------------------------------ 1 Success B652C8EF B652C8EF "Marc Ellington - A Question Of Roads.flac" 2 Success C1995ACE C1995ACE "Marc Ellington - A Question Of Roads.flac" 3 Success 59A390C4 59A390C4 "Marc Ellington - A Question Of Roads.flac" 4 Success 4057809A 4057809A "Marc Ellington - A Question Of Roads.flac" 5 Success BC29CF1F BC29CF1F "Marc Ellington - A Question Of Roads.flac" 6 Success C4E6F303 C4E6F303 "Marc Ellington - A Question Of Roads.flac" 7 Success 37FD67D1 37FD67D1 "Marc Ellington - A Question Of Roads.flac" 8 Success 5B5AAFAD 5B5AAFAD "Marc Ellington - A Question Of Roads.flac" 9 Success 7F31AFCB 7F31AFCB "Marc Ellington - A Question Of Roads.flac"10 Success DAC0F37A DAC0F37A "Marc Ellington - A Question Of Roads.flac"11 Success AD7D18EC AD7D18EC "Marc Ellington - A Question Of Roads.flac"12 Success 478E3124 478E3124 "Marc Ellington - A Question Of Roads.flac"
    Details-------
    Track 1
    Filename "Marc Ellington - A Question Of Roads.flac"
    Begin 1st pass (copy)
    Begin 2nd pass (test)
    CRC (test) : B652C8EF CRC (copy) : B652C8EF
    Finished successfully
    Track 2
    Filename "Marc Ellington - A Question Of Roads.flac"
    Begin 1st pass (copy)
    Begin 2nd pass (test)
    CRC (test) : C1995ACE CRC (copy) : C1995ACE
    Finished successfully
    Track 3
    Filename "Marc Ellington - A Question Of Roads.flac"
    Begin 1st pass (copy)
    Begin 2nd pass (test)
    CRC (test) : 59A390C4 CRC (copy) : 59A390C4
    Finished successfully
    Track 4
    Filename "Marc Ellington - A Question Of Roads.flac"
    Begin 1st pass (copy)
    Begin 2nd pass (test)
    CRC (test) : 4057809A CRC (copy) : 4057809A
    Finished successfully
    Track 5
    Filename "Marc Ellington - A Question Of Roads.flac"
    Begin 1st pass (copy)
    Begin 2nd pass (test)
    CRC (test) : BC29CF1F CRC (copy) : BC29CF1F
    Finished successfully
    Track 6
    Filename "Marc Ellington - A Question Of Roads.flac"
    Begin 1st pass (copy)
    Begin 2nd pass (test)
    CRC (test) : C4E6F303 CRC (copy) : C4E6F303
    Finished successfully
    Track 7
    Filename "Marc Ellington - A Question Of Roads.flac"
    Begin 1st pass (copy)
    Begin 2nd pass (test)
    CRC (test) : 37FD67D1 CRC (copy) : 37FD67D1
    Finished successfully
    Track 8
    Filename "Marc Ellington - A Question Of Roads.flac"
    Begin 1st pass (copy)
    Begin 2nd pass (test)
    CRC (test) : 5B5AAFAD CRC (copy) : 5B5AAFAD
    Finished successfully
    Track 9
    Filename "Marc Ellington - A Question Of Roads.flac"
    Begin 1st pass (copy)
    Begin 2nd pass (test)
    CRC (test) : 7F31AFCB CRC (copy) : 7F31AFCB
    Finished successfully
    Track 10
    Filename "Marc Ellington - A Question Of Roads.flac"
    Begin 1st pass (copy)
    Begin 2nd pass (test)
    CRC (test) : DAC0F37A CRC (copy) : DAC0F37A
    Finished successfully
    Track 11
    Filename "Marc Ellington - A Question Of Roads.flac"
    Begin 1st pass (copy)
    Begin 2nd pass (test)
    CRC (test) : AD7D18EC CRC (copy) : AD7D18EC
    Finished successfully
    Track 12
    Filename "Marc Ellington - A Question Of Roads.flac"
    Begin 1st pass (copy)
    Begin 2nd pass (test)
    CRC (test) : 478E3124 CRC (copy) : 478E3124
    Finished successfully
    -

    • Information •

    Marc Ellington is a Scottish folksinger and multi-instrumentalist who worked with Fairport Convention, providing some vocal support on their 1969 ‘Unhalfbricking’ album, also played with Matthews Southern Comfort in the same year, as well as releasing his debut. I haven’t heard that one, but came across his 1971 follow-up ‘Rains/Reins of Change’ some years ago, and was intrigued to see just how members of Fairport were involved. It was a very different line-up for the next album, ‘A Question of Roads’.
    The album has far more in common with American country, with steel guitars and banjo making plenty of appearances. If I was to compare this album with a more well-known group then it would be with The Band, as this 1972 album compares well with the music they were releasing at the same time.
    It is laid back, melodic, and totally enjoyable the first time it is played. This album may not have any Fairport members involved, but I did find it intriguing to note that it includes a very countrified “Open The Door, Homer”, which was what Bob Dylan & The Band called “Open The Door, Richard” when they recorded it in 1967, but it can trace its roots back the Forties. Fairport Convention then recorded the song on the ‘Red & Gold album’, in a very different manner to this it must be said. Marc must have been held in high acclaim back in the Seventies when one sees who he worked with, and the number of solo albums he released, but he seems to have been mostly forgotten now which is a real shame.
    -
  • Folk-Rock (lossless) > (Folk | Pop) [WEB] Queen Of The Meadow - A Room to Store Happiness - 2018, FLAC (tracks), lossless
  • 22-Окт-2018 23:05

    Ranku



    Queen Of The Meadow

    A Room to Store Happiness





    • Жанр: Folk Pop
    • Носитель: WEB
    • Год издания: 2018
    • Издатель: Only Lovers Records
    • Страна: France
    • Аудиокодек: FLAC (*.flac)
    • Тип рипа: tracks
    • Продолжительность: 00:38:25
    • Источник (спасибо): NBMus
    • WEB релиз: bandcamp
    • Наличие сканов: front

    01 - Withdrawn (00:03:59)
    02 - Heavenly Start (00:03:56)
    03 - Fairytopia (00:03:53)
    04 - Valentine's Day (1) (00:02:25)
    04 - Valentine's Day (00:02:25)
    05 - Royal Garden (00:03:10)
    06 - Ashes Adele (00:05:10)
    07 - Slumber (00:03:50)
    08 - Perfect Harmony (00:03:25)
    09 - Empty Room (00:03:17)
    10 - Orpheus (00:02:50)

    -
    -

    • Замер динамического диапазона •

    foobar2000 1.3.17 / Замер динамического диапазона (DR) 1.1.1Дата отчёта:  2018-10-08 22:22:46
    --------------------------------------------------------------------------------Анализ: Queen Of The Meadow / A Room to Store Happiness--------------------------------------------------------------------------------
    DR Пики RMS Продолжительность трека--------------------------------------------------------------------------------DR6 -0.47 дБ -8.97 дБ 4:00 01-WithdrawnDR7 -0.49 дБ -10.06 дБ 3:57 02-Heavenly StartDR8 -0.49 дБ -11.37 дБ 3:53 03-FairytopiaDR6 -0.49 дБ -8.72 дБ 2:25 04-Valentine’s DayDR7 -0.49 дБ -9.50 дБ 3:11 05-Royal GardenDR6 -0.46 дБ -8.63 дБ 5:10 06-Ashes AdèleDR5 -0.49 дБ -8.01 дБ 3:50 07-SlumberDR8 -0.49 дБ -10.16 дБ 3:26 08-Perfect HarmonyDR5 -0.48 дБ -7.28 дБ 3:18 09-Empty RoomDR6 -0.49 дБ -8.62 дБ 2:51 10-Orpheus--------------------------------------------------------------------------------
    Количество треков: 10Реальные значения DR: DR7
    Частота: 44100 ГцКаналов: 2Разрядность: 16Битрейт: 892 кбит/сКодек: FLAC================================================================================
    -

    • Лог проверки качества •

    -----------------------
    DON'T MODIFY THIS FILE
    -----------------------
    PERFORMER: auCDtect Task Manager, ver. 1.5.1RC3 build 1.5.1.4Copyright (c) 2008-2010 y-soft. All rights reservedhttp://y-soft.org
    ANALYZER: auCDtect: CD records authenticity detector, version 0.8.2Copyright (c) 2004 Oleg Berngardt. All rights reserved.Copyright (c) 2004 Alexander Djourik. All rights reserved.
    FILE: 10.flac Size: 19277644 Hash: A8C6AFFF2AB2DF779E991A87A191162C Accuracy: -m0 Conclusion: CDDA 100% Signature: 73DC5D0D800747CE63D15B69F73D66B463768B05FILE: 09.flac Size: 22938143 Hash: 91FD962CE403D1673203593E281374DA Accuracy: -m0 Conclusion: CDDA 100% Signature: 466C289D5EA09D312925BE5125384B6472FC55BBFILE: 08.flac Size: 21312664 Hash: A6A81CCD9BBA838CE20DBE4B92540739 Accuracy: -m0 Conclusion: CDDA 100% Signature: 163A3595165A4AA6E777E27B4BF01DD74DD95C5DFILE: 07.flac Size: 26478389 Hash: 73638A341C7D1DD3A644C6C31B0565C4 Accuracy: -m0 Conclusion: CDDA 100% Signature: A653F72AADC9771D6DFFAE6D59B4735F7089B6FDFILE: 06.flac Size: 34480346 Hash: 882819834C44E5943AEB11B85D90EBEB Accuracy: -m0 Conclusion: CDDA 100% Signature: EE1A5FD60F10C03E83865483D1058D252565C291FILE: 05.flac Size: 20742124 Hash: E78E6B7CABA7796D272DBFB139BFABE2 Accuracy: -m0 Conclusion: CDDA 100% Signature: C0B2A43A8C5610270D73B37DDD706C5FDFC4D6D1FILE: 04.flac Size: 16297445 Hash: A084C5796636461A3CC003932CC90117 Accuracy: -m0 Conclusion: CDDA 100% Signature: 4B2E6AC0D16099A218BB920BD01E4886E2B85368FILE: 04 (1).flac Size: 16297445 Hash: A084C5796636461A3CC003932CC90117 Accuracy: -m0 Conclusion: CDDA 100% Signature: 960BF8ED0E8B868F9D06F16FA38FDDC4923D30B4FILE: 03.flac Size: 23886814 Hash: 357483A19D5F188FB214EDEF44A495B8 Accuracy: -m0 Conclusion: CDDA 100% Signature: 839AC087ABF6B7F1B4A7CAFD362C55A00ABFFAD2FILE: 02.flac Size: 25095069 Hash: 65C93C02A058948A7460CBAE58079079 Accuracy: -m0 Conclusion: CDDA 100% Signature: 54429CF46628CFB291F4190377D2BD2FCEDF53BAFILE: 01.flac Size: 25894545 Hash: B08FAADD59D498809890973C1073EAC9 Accuracy: -m0 Conclusion: CDDA 100% Signature: 13A5CA2D41916E5002A292078BD678D7F2DE6238
    -
  • Folk-Rock (lossless) > (Instrumental | Folk) [WEB] Jim Ghedi & Toby Hay - The Hawksworth Grove Sessions - 2018, FLAC (tracks), lossless
  • 22-Окт-2018 21:42

    Ranku



    Jim Ghedi & Toby Hay

    The Hawksworth Grove Sessions





    • Жанр: Instrumental | Folk
    • Носитель: WEB
    • Год издания: 2018
    • Издатель: Cambrian Records
    • Страна: UK
    • Аудиокодек: FLAC (*.flac)
    • Тип рипа: tracks
    • Продолжительность: 00:33:47
    • Источник (спасибо): NBMus
    • WEB релиз: 7digital
    • Наличие сканов: front

    01 - The Earls of Errol (00:04:46)
    02 - Night, Moon, Dance (00:04:17)
    03 - Interlude I (00:01:01)
    04 - Goat Fell (00:03:58)
    05 - The Marcher Lords (00:04:16)
    06 - The Huntsman and the Horse (00:03:33)
    07 - Wesleyan (00:03:25)
    08 - Interlude II (00:01:05)
    09 - Hawksworth Grove (00:03:16)
    10 - Arran to Aboyne (00:04:06)

    -
    -

    • Замер динамического диапазона •

    foobar2000 1.3.17 / Замер динамического диапазона (DR) 1.1.1Дата отчёта:  2018-10-13 14:01:49
    --------------------------------------------------------------------------------Анализ: Jim Ghedi, Toby Hay / The Hawksworth Grove Sessions--------------------------------------------------------------------------------
    DR Пики RMS Продолжительность трека--------------------------------------------------------------------------------DR10 -0.20 дБ -12.08 дБ 4:46 01-The Earls of ErrolDR9 -0.20 дБ -12.06 дБ 4:17 02-Night, Moon, DanceDR13 -2.32 дБ -22.85 дБ 1:01 03-Interlude IDR10 -0.20 дБ -12.29 дБ 3:58 04-Goat FellDR11 -0.20 дБ -13.91 дБ 4:16 05-The Marcher LordsDR9 -0.20 дБ -12.32 дБ 3:34 06-The Huntsman and the HorseDR10 -0.20 дБ -11.88 дБ 3:26 07-WesleyanDR10 -1.20 дБ -16.13 дБ 1:05 08-Interlude IIDR9 -0.20 дБ -11.92 дБ 3:17 09-Hawksworth GroveDR10 -0.29 дБ -12.91 дБ 4:07 10-Arran to Aboyne--------------------------------------------------------------------------------
    Количество треков: 10Реальные значения DR: DR10
    Частота: 44100 ГцКаналов: 2Разрядность: 16Битрейт: 810 кбит/сКодек: FLAC================================================================================
    -

    • Лог проверки качества •

    -----------------------
    DON'T MODIFY THIS FILE
    -----------------------
    PERFORMER: auCDtect Task Manager, ver. 1.5.1RC3 build 1.5.1.4Copyright (c) 2008-2010 y-soft. All rights reservedhttp://y-soft.org
    ANALYZER: auCDtect: CD records authenticity detector, version 0.8.2Copyright (c) 2004 Oleg Berngardt. All rights reserved.Copyright (c) 2004 Alexander Djourik. All rights reserved.
    FILE: 10.flac Size: 25134461 Hash: 56016404698DAEDB6782416B6435F5FC Accuracy: -m0 Conclusion: MPEG 79% Signature: FADECC82881BE36F9A7E05109E6FB160C153A7D1FILE: 09.flac Size: 20193631 Hash: F89199324B0A531CB9EAC8EDCC2D7D44 Accuracy: -m0 Conclusion: CDDA 100% Signature: 24FBB5D1388EFE4634A72AB061FDE0322B14E71CFILE: 08.flac Size: 5667271 Hash: 4A6608169859F676F76A91D8E753F535 Accuracy: -m0 Conclusion: CDDA 99% Signature: 00EEDF439C4970BB0B66B6219FD02904D911307AFILE: 07.flac Size: 21756184 Hash: 119829E13549ED58D9B4E862219BFEFE Accuracy: -m0 Conclusion: CDDA 100% Signature: 05424EF4647E3ECAC822AC5AA8CD1ED3550C849EFILE: 06.flac Size: 21422348 Hash: B0E48A210269D7F8346E4E25235E9558 Accuracy: -m0 Conclusion: CDDA 100% Signature: A6D77B9305C09FAEF70F8F2C7E81DB64FB005C77FILE: 05.flac Size: 24340189 Hash: AD27CCD335A980217F6D404719520C5A Accuracy: -m0 Conclusion: CDDA 100% Signature: 7E08D541C044CF719DF4BC8857F0E08346C3BA60FILE: 04.flac Size: 25115057 Hash: 76CEB7C39B00B3A71FE78C0B2B5EA090 Accuracy: -m0 Conclusion: CDDA 99% Signature: 03467EBC191E1058649E883BA4BBDE5C450AAEEFFILE: 03.flac Size: 4253134 Hash: 766C27F73192BAAFAFC4426B48BB58AE Accuracy: -m0 Conclusion: CDDA 100% Signature: 3D30FE770B24A4A7C498B97F2B72D71AA9958E5CFILE: 02.flac Size: 26431837 Hash: DFEF2970BDB6812FB50C79EB3D0CBE1C Accuracy: -m0 Conclusion: CDDA 100% Signature: 7014109420681B5BF13927CEB95EFE4EE1E56ABFFILE: 01.flac Size: 29500748 Hash: 6E0E07A513B09B362CA80BDBD959615F Accuracy: -m0 Conclusion: CDDA 100% Signature: B31B6EDDAC04D9C0AE5287AB852FA54A094B3D9D
    -

    • Скриншот подозрительных спектров •

    -
  • Folk-Rock (lossless) > (Folk Rock | Americana) [WEB] Annie Oakley - Words We Mean - 2018, FLAC (tracks), lossless
  • 22-Окт-2018 21:38

    Ranku



    Annie Oakley

    Words We Mean





    • Жанр: Folk Rock | Americana
    • Носитель: WEB
    • Год издания: 2018
    • Издатель: Horton Records
    • Страна: USA
    • Аудиокодек: FLAC (*.flac)
    • Тип рипа: tracks
    • Продолжительность: 00:44:48
    • Источник (спасибо): NBMus
    • WEB релиз: bandcamp
    • Наличие сканов: front

    01 - Pomp and Swell (00:03:16)
    02 - Recognition (00:03:14)
    03 - Brother (00:02:40)
    04 - Good Things (00:04:29)
    05 - Did You Dream (00:04:20)
    06 - Into the Light (00:04:27)
    07 - If I Were a Ghost (00:03:56)
    08 - Missed Connection (00:05:00)
    09 - Nothing to Say (00:03:04)
    10 - The Curse (00:03:52)
    11 - Words We Mean (00:04:31)
    12 - Sweet Time (00:01:54)

    -
    -

    • Замер динамического диапазона •

    foobar2000 1.3.17 / Замер динамического диапазона (DR) 1.1.1Дата отчёта:  2018-10-13 13:55:16
    --------------------------------------------------------------------------------Анализ: Annie Oakley / Words We Mean--------------------------------------------------------------------------------
    DR Пики RMS Продолжительность трека--------------------------------------------------------------------------------DR11 -0.43 дБ -12.97 дБ 3:17 01-Pomp and SwellDR9 -0.36 дБ -12.06 дБ 3:14 02-RecognitionDR11 -0.43 дБ -13.92 дБ 2:41 03-BrotherDR8 -0.11 дБ -10.03 дБ 4:30 04-Good ThingsDR11 -0.44 дБ -14.98 дБ 4:21 05-Did You DreamDR10 -0.38 дБ -13.23 дБ 4:28 06-Into the LightDR10 -2.85 дБ -15.58 дБ 3:56 07-If I Were a GhostDR10 -0.39 дБ -14.03 дБ 5:00 08-Missed ConnectionDR7 -0.21 дБ -9.98 дБ 3:04 09-Nothing to SayDR11 -1.18 дБ -16.66 дБ 3:52 10-The CurseDR12 -0.47 дБ -15.51 дБ 4:31 11-Words We MeanDR11 -0.46 дБ -13.88 дБ 1:55 12-Sweet Time--------------------------------------------------------------------------------
    Количество треков: 12Реальные значения DR: DR10
    Частота: 44100 ГцКаналов: 2Разрядность: 16Битрейт: 751 кбит/сКодек: FLAC================================================================================
    -

    • Лог проверки качества •

    -----------------------
    DON'T MODIFY THIS FILE
    -----------------------
    PERFORMER: auCDtect Task Manager, ver. 1.6.0 RC1 build 1.6.0.1Copyright (c) 2008-2010 y-soft. All rights reservedhttp://y-soft.org
    ANALYZER: auCDtect: CD records authenticity detector, version 0.8.2Copyright (c) 2004 Oleg Berngardt. All rights reserved.Copyright (c) 2004 Alexander Djourik. All rights reserved.
    FILE: 12 - Sweet Time.flac Size: 11010320 Hash: 1A5487BA7101C215860DB5C19CC76533 Accuracy: -m0 Conclusion: CDDA 100% Signature: 2AF04D4BF73085854B9868414A287445FF4A1B1CFILE: 11 - Words We Mean.flac Size: 24611377 Hash: 34EB94BA07C81139817419539ADB7E45 Accuracy: -m0 Conclusion: CDDA 100% Signature: EEC7713C87DA813C83E199106009FBAD5568F6A0FILE: 10 - The Curse.flac Size: 20490744 Hash: D3C2AA8FCEE0AFBB8AA23380DE91423E Accuracy: -m0 Conclusion: CDDA 100% Signature: 5D4C1D1C39BB1EB8CA8C107C2AD3291E5EDD3135FILE: 09 - Nothing to Say.flac Size: 20664516 Hash: 7F688CE3590C22DBF17C5EBF2AF80E4B Accuracy: -m0 Conclusion: CDDA 99% Signature: DC865C8CE81CBE02561028A6260FF873EB45E9A0FILE: 08 - Missed Connection.flac Size: 27539725 Hash: BEA86301EEE519949431D660340C3A78 Accuracy: -m0 Conclusion: CDDA 100% Signature: DB0C20339F7A2039FF6C4613741924EE1680F123FILE: 07 - If I Were a Ghost.flac Size: 22293989 Hash: 301ACEE1696ACA62241356916AF76E2E Accuracy: -m0 Conclusion: CDDA 100% Signature: A1407242F31AD97B7E2A53C598852CA49A549874FILE: 06 - Into the Light.flac Size: 25031764 Hash: C583BA337C5FBBD8A33E191D636586B7 Accuracy: -m0 Conclusion: CDDA 100% Signature: 17F19A0648F99751D938D8892E689C4DA2EAF823FILE: 05 - Did You Dream.flac Size: 24111886 Hash: F9FBFF1C5163DF3F3262CA676021CE1C Accuracy: -m0 Conclusion: CDDA 100% Signature: F7671E642048FCFFA860992A652877EBB862A2BBFILE: 04 - Good Things.flac Size: 28428955 Hash: EE6210C6F4B476B1DEBFA7AC6B620566 Accuracy: -m0 Conclusion: CDDA 100% Signature: AF28D3DE72E42BE214F8AB3C7B97E21AC0C71FF8FILE: 03 - Brother.flac Size: 16692285 Hash: 464FE4989DC5F6D226712057DEDC8F7E Accuracy: -m0 Conclusion: CDDA 100% Signature: 2C9BED3CD2011FC906F2FF81D14B3FC0FD78AC82FILE: 02 - Recognition.flac Size: 19504240 Hash: 7F45FBF9E5241732C00CDE712EBFAE01 Accuracy: -m0 Conclusion: CDDA 100% Signature: 8412BEDF0E3C7BCCAC30B951A584F315776C4D2FFILE: 01 - Pomp and Swell.flac Size: 20839932 Hash: 89DB1DE9C22D846B720FB3864A518196 Accuracy: -m0 Conclusion: CDDA 99% Signature: CA1A61AFC706DB36F68AF952CC9E0CCAE857DA0C
    -
  • Folk-Rock (lossless) > (Folk-Rock) [WEB] Paul Kelly - Nature - 2018, FLAC (tracks), lossless
  • 22-Окт-2018 21:38

    Ranku



    Paul Kelly

    Nature





    • Жанр: Folk-Rock
    • Носитель: WEB
    • Год издания: 2018
    • Издатель: Cooking Vinyl
    • Страна: Australia
    • Аудиокодек: FLAC (*.flac)
    • Тип рипа: tracks
    • Продолжительность: 00:32:46
    • Источник (спасибо): NBMus
    • WEB релиз: qobuz
    • Наличие сканов: front

    01 - And Death Shall Have No Dominion (00:02:26)
    02 - With The One I Love (00:02:29)
    03 - A Bastard Like Me (00:02:34)
    04 - Little Wolf (00:02:54)
    05 - With Animals (00:02:23)
    06 - Bound To Follow (Aisling Song) (00:04:06)
    07 - Seagulls Of Seattle (00:03:00)
    08 - Morning Storm (00:03:00)
    09 - Mushrooms (00:02:56)
    10 - The River Song (00:02:12)
    11 - God's Grandeur (00:02:17)
    12 - The Trees (00:02:23)

    -
    --

    • Лог проверки качества •

    -----------------------
    DON'T MODIFY THIS FILE
    -----------------------
    PERFORMER: auCDtect Task Manager, ver. 1.6.0 RC1 build 1.6.0.1Copyright (c) 2008-2010 y-soft. All rights reservedhttp://y-soft.org
    ANALYZER: auCDtect: CD records authenticity detector, version 0.8.2Copyright (c) 2004 Oleg Berngardt. All rights reserved.Copyright (c) 2004 Alexander Djourik. All rights reserved.
    FILE: 12. The Trees.flac Size: 14076294 Hash: CA263923C4F80CD2F177DB954FD88DFD Accuracy: -m0 Conclusion: CDDA 99% Signature: ACE8536E76E6B223FFF7331F68BB0F6ADF741C7AFILE: 11. God's Grandeur.flac Size: 14883283 Hash: A57C528F5B25EFBF244CEA71F7683781 Accuracy: -m0 Conclusion: CDDA 100% Signature: 96B832DE7AE931257AF95AAE8EF2F80F12957474FILE: 10. The River Song.flac Size: 12453611 Hash: 4093F037AE0C6F3A91D295F027D3EB80 Accuracy: -m0 Conclusion: CDDA 100% Signature: 3D6F0B78053962E61C98E3EB4581F3B851EAF485FILE: 09. Mushrooms.flac Size: 18385078 Hash: 31E36E25D453BF3EE1150DC351B8F0F2 Accuracy: -m0 Conclusion: CDDA 100% Signature: 08056E717B856FB57F70969343294A055A21D49BFILE: 08. Morning Storm.flac Size: 19135043 Hash: A69D0D1D55DA56D920F165672F0784BC Accuracy: -m0 Conclusion: CDDA 100% Signature: A0D70DEBE5DAC4E412879BA025CE9F202C982F88FILE: 07. Seagulls Of Seattle.flac Size: 17830544 Hash: F110B12876F8F23689B2C2B22C587C85 Accuracy: -m0 Conclusion: CDDA 100% Signature: EFE13C8D44A3E522F188F17013C822CBE5DA1ADBFILE: 06. Bound To Follow (Aisling Song).flac Size: 27409584 Hash: 3DB67EE32E1A4C33DBFEEDD2CE35C307 Accuracy: -m0 Conclusion: CDDA 100% Signature: F52E2988F9206466AA62E6917D22A872DD649853FILE: 05. With Animals.flac Size: 13773789 Hash: B95FEF9AE6D96C8070E2D050EA290AB4 Accuracy: -m0 Conclusion: CDDA 100% Signature: C2C016CAE1AF60DBD16AA3F08188EA335362DCFAFILE: 04. Little Wolf.flac Size: 15870467 Hash: B0AC791C18D6A13B8534CC5CBAFFE4A4 Accuracy: -m0 Conclusion: CDDA 100% Signature: FCE04DB2DE515E597D6B871EF3D0666F7EE2AFC6FILE: 03. A Bastard Like Me.flac Size: 17513574 Hash: 847FB00211B2C528865C68C494563449 Accuracy: -m0 Conclusion: CDDA 100% Signature: EC1387FD1DEBDBFD00AF32BEFE61F66D183786FFFILE: 02. With The One I Love.flac Size: 19499248 Hash: 8F34E56D4103B87A0FC355C40AEB2454 Accuracy: -m0 Conclusion: CDDA 100% Signature: B085F688FFB5414F36526D931B506DA9F501278FFILE: 01. And Death Shall Have No Dominion.flac Size: 18052351 Hash: 128EEB03AFC7A6D6082E0B6CA1769F2D Accuracy: -m0 Conclusion: CDDA 100% Signature: 250388F5AB713D594AE3C69093AC608AF531E3D0
    -
  • Folk-Rock (lossless) > (Rock/Folk/Blues) [CDR] Mauricio Redolés & Son Ellos Mismos (Mauricio Redoles & Son Ellos Mismos) - Bello Barrio - 1987 (1999), FLAC (tracks+.cue), lossless
  • 22-Окт-2018 19:42

    Ranku

    Mauricio Redolés & Son Ellos Mismos / Bello Barrio
    Жанр: Rock/Folk/Blues
    Носитель: CDR
    Страна-производитель диска (релиза): Chile
    Год издания: 1999
    Издатель (лейбл): Beta Pictoris
    Страна исполнителя (группы): Chile
    Аудиокодек: FLAC (*.flac)
    Тип рипа: tracks+.cue
    Битрейт аудио: lossless
    Продолжительность: 00:49:14
    Источник (релизер): own rip
    Наличие сканов в содержимом раздачи: да
    Треклист:
    01. Blues de Santiago 03:38
    02. Fulgor y muerte de John Lennon 00:40
    03. Nutrias en abril 04:28
    04. Nada 02:14
    05. No importa 01:05
    06. Triste funcionario policial 02:46
    07. La persecusión del poema y la poesía según mi padre conmigo jugando futbol 02:06
    08. Ciertos especta culos de Santiago de Chile 05:28
    09. Chaos 01:11
    10. Adivinanza lengua o labio 00:45
    11. Canción pa' la más chiquitita de todas 03:39
    12. Descripción de la casa de Harrow Road para el año 2580 02:49
    13. Yo también viví en Harrow Road 03:25
    14. Verde susurro pa' Georgina 01:52
    15. Epitafio 03:55
    16. Chilean Business 00:40
    17. El maestro Sandovar 02:23
    18. Bello Barrio 06:10

    Лог создания рипа

    X Lossless Decoder version 20170729 (150.3)
    XLD extraction logfile from 2018-10-02 15:45:18 -0300
    Mauricio Redolés & Son Ellos Mismos / Bello Barrio
    Used drive : HL-DT-ST DVDRW GS41N (revision UA04)Media type : CD-Recordable
    Ripper mode : XLD Secure RipperDisable audio cache : OK for the drive with a cache less than 1375KiBMake use of C2 pointers : NORead offset correction : 6Max retry count : 20Gap status : Analyzed, Appended
    TOC of the extracted CD Track | Start | Length | Start sector | End sector --------------------------------------------------------- 1 | 00:00:01 | 03:38:30 | 1 | 16380 2 | 03:38:31 | 00:39:60 | 16381 | 19365 3 | 04:18:16 | 04:28:18 | 19366 | 39483 4 | 08:46:34 | 02:14:09 | 39484 | 49542 5 | 11:00:43 | 01:05:13 | 49543 | 54430 6 | 12:05:56 | 02:46:29 | 54431 | 66909 7 | 14:52:10 | 02:06:29 | 66910 | 76388 8 | 16:58:39 | 05:27:70 | 76389 | 100983 9 | 22:26:34 | 01:11:01 | 100984 | 106309 10 | 23:37:35 | 00:45:02 | 106310 | 109686 11 | 24:22:37 | 03:38:59 | 109687 | 126095 12 | 28:01:21 | 02:48:47 | 126096 | 138742 13 | 30:49:68 | 03:24:46 | 138743 | 154088 14 | 34:14:39 | 01:51:49 | 154089 | 162462 15 | 36:06:13 | 03:54:55 | 162463 | 180067 16 | 40:00:68 | 00:39:65 | 180068 | 183057 17 | 40:40:58 | 02:23:14 | 183058 | 193796 18 | 43:03:72 | 06:10:19 | 193797 | 221565
    List of alternate offset correction values # | Absolute | Relative | Confidence ------------------------------------------ 1 | -1764 | -1770 | 1
    AccurateRip Summary (DiscID: 001e8206-01972785-e80b8a12) Track 01 : OK (v2, confidence 1/1, with different offset) Track 02 : OK (v2, confidence 1/1, with different offset) Track 03 : OK (v2, confidence 1/1, with different offset) Track 04 : OK (v2, confidence 1/1, with different offset) Track 05 : OK (v2, confidence 1/1, with different offset) Track 06 : OK (v2, confidence 1/1, with different offset) Track 07 : OK (v2, confidence 1/1, with different offset) Track 08 : OK (v2, confidence 1/1, with different offset) Track 09 : OK (v2, confidence 1/1, with different offset) Track 10 : OK (v2, confidence 1/1, with different offset) Track 11 : OK (v2, confidence 1/1, with different offset) Track 12 : OK (v2, confidence 1/1, with different offset) Track 13 : OK (v2, confidence 1/1, with different offset) Track 14 : OK (v2, confidence 1/1, with different offset) Track 15 : OK (v2, confidence 1/1, with different offset) Track 16 : OK (v2, confidence 1/1, with different offset) Track 17 : OK (v2, confidence 1/1, with different offset) Track 18 : OK (v2, confidence 1/1, with different offset) ->All tracks accurately ripped.
    All Tracks Album gain : -8.29 dB Peak : 0.988556 Statistics Read error : 0 Jitter error (maybe fixed) : 0 Retry sector count : 0 Damaged sector count : 0
    Track 01 Filename : /Users/paltsug/Desktop/Bello Barrio/01 Mauricio Redolés & Son Ellos Mismos - Blues de Santiago.flac Pre-gap length : 00:02:01
    Track gain : -9.97 dB Peak : 0.988556 CRC32 hash (test run) : 102E1B5D CRC32 hash : 102E1B5D CRC32 hash (skip zero) : E4D12BD9 AccurateRip v1 signature : 612E048A AccurateRip v2 signature : 26DF965B (6CD58114 w/correction) ->Accurately ripped with different offset (v2, confidence 1/1, offset -1770) Statistics Read error : 0 Jitter error (maybe fixed) : 0 Retry sector count : 0 Damaged sector count : 0
    Track 02 Filename : /Users/paltsug/Desktop/Bello Barrio/02 Mauricio Redolés & Son Ellos Mismos - Fulgor y muerte de John Lennon.flac
    Track gain : -6.31 dB Peak : 0.988556 CRC32 hash (test run) : 7E206AB5 CRC32 hash : 7E206AB5 CRC32 hash (skip zero) : C9656998 AccurateRip v1 signature : E8719B9E AccurateRip v2 signature : E24C81BA (B42AF152 w/correction) ->Accurately ripped with different offset (v2, confidence 1/1, offset -1770) Statistics Read error : 0 Jitter error (maybe fixed) : 0 Retry sector count : 0 Damaged sector count : 0
    Track 03 Filename : /Users/paltsug/Desktop/Bello Barrio/03 Mauricio Redolés & Son Ellos Mismos - Nutrias en abril.flac
    Track gain : -10.04 dB Peak : 0.988556 CRC32 hash (test run) : F0DC96DD CRC32 hash : F0DC96DD CRC32 hash (skip zero) : 46DEC441 AccurateRip v1 signature : D2D0BF76 AccurateRip v2 signature : 7F521F07 (A82B3A40 w/correction) ->Accurately ripped with different offset (v2, confidence 1/1, offset -1770) Statistics Read error : 0 Jitter error (maybe fixed) : 0 Retry sector count : 0 Damaged sector count : 0
    Track 04 Filename : /Users/paltsug/Desktop/Bello Barrio/04 Mauricio Redolés & Son Ellos Mismos - Nada.flac
    Track gain : -9.46 dB Peak : 0.988556 CRC32 hash (test run) : CDB0040B CRC32 hash : CDB0040B CRC32 hash (skip zero) : A5D98A33 AccurateRip v1 signature : 83C9A69B AccurateRip v2 signature : 80AE3E9A (40C0D443 w/correction) ->Accurately ripped with different offset (v2, confidence 1/1, offset -1770) Statistics Read error : 0 Jitter error (maybe fixed) : 0 Retry sector count : 0 Damaged sector count : 0
    Track 05 Filename : /Users/paltsug/Desktop/Bello Barrio/05 Mauricio Redolés & Son Ellos Mismos - No importa.flac
    Track gain : -5.90 dB Peak : 0.881042 CRC32 hash (test run) : 1F1EEACA CRC32 hash : 1F1EEACA CRC32 hash (skip zero) : 6357E137 AccurateRip v1 signature : C0BBB4D9 AccurateRip v2 signature : 463DDDE3 (889D7657 w/correction) ->Accurately ripped with different offset (v2, confidence 1/1, offset -1770) Statistics Read error : 0 Jitter error (maybe fixed) : 0 Retry sector count : 0 Damaged sector count : 0
    Track 06 Filename : /Users/paltsug/Desktop/Bello Barrio/06 Mauricio Redolés & Son Ellos Mismos - Triste funcionario policial.flac
    Track gain : -8.53 dB Peak : 0.785248 CRC32 hash (test run) : A5A96934 CRC32 hash : A5A96934 CRC32 hash (skip zero) : 92EDA00F AccurateRip v1 signature : 58C195DD AccurateRip v2 signature : E03DD689 (C3CAB831 w/correction) ->Accurately ripped with different offset (v2, confidence 1/1, offset -1770) Statistics Read error : 0 Jitter error (maybe fixed) : 0 Retry sector count : 0 Damaged sector count : 0
    Track 07 Filename : /Users/paltsug/Desktop/Bello Barrio/07 Mauricio Redolés & Son Ellos Mismos - La persecusión del poema y la poesía según mi padre conmigo jugando futbol.flac
    Track gain : -6.69 dB Peak : 0.881042 CRC32 hash (test run) : 2174FE38 CRC32 hash : 2174FE38 CRC32 hash (skip zero) : 0B492C61 AccurateRip v1 signature : 71842340 AccurateRip v2 signature : 54C0B952 (6EC777C0 w/correction) ->Accurately ripped with different offset (v2, confidence 1/1, offset -1770) Statistics Read error : 0 Jitter error (maybe fixed) : 0 Retry sector count : 0 Damaged sector count : 0
    Track 08 Filename : /Users/paltsug/Desktop/Bello Barrio/08 Mauricio Redolés & Son Ellos Mismos - Ciertos especta culos de Santiago de Chile.flac
    Track gain : -7.55 dB Peak : 0.988556 CRC32 hash (test run) : A1044C28 CRC32 hash : A1044C28 CRC32 hash (skip zero) : D87E4FCE AccurateRip v1 signature : 30799461 AccurateRip v2 signature : 738D0EC9 (4CD0D1DF w/correction) ->Accurately ripped with different offset (v2, confidence 1/1, offset -1770) Statistics Read error : 0 Jitter error (maybe fixed) : 0 Retry sector count : 0 Damaged sector count : 0
    Track 09 Filename : /Users/paltsug/Desktop/Bello Barrio/09 Mauricio Redolés & Son Ellos Mismos - Chaos.flac
    Track gain : -6.20 dB Peak : 0.988556 CRC32 hash (test run) : 107ADF65 CRC32 hash : 107ADF65 CRC32 hash (skip zero) : B6E99ABB AccurateRip v1 signature : 72C45FB8 AccurateRip v2 signature : 95E71818 (706673F4 w/correction) ->Accurately ripped with different offset (v2, confidence 1/1, offset -1770) Statistics Read error : 0 Jitter error (maybe fixed) : 0 Retry sector count : 0 Damaged sector count : 0
    Track 10 Filename : /Users/paltsug/Desktop/Bello Barrio/10 Mauricio Redolés & Son Ellos Mismos - Adivinanza lengua o labio.flac
    Track gain : 0.98 dB Peak : 0.785248 CRC32 hash (test run) : 75E5CCC4 CRC32 hash : 75E5CCC4 CRC32 hash (skip zero) : 575E3C6F AccurateRip v1 signature : 9F3EB97A AccurateRip v2 signature : 2E815539 (DA9AC240 w/correction) ->Accurately ripped with different offset (v2, confidence 1/1, offset -1770) Statistics Read error : 0 Jitter error (maybe fixed) : 0 Retry sector count : 0 Damaged sector count : 0
    Track 11 Filename : /Users/paltsug/Desktop/Bello Barrio/11 Mauricio Redolés & Son Ellos Mismos - Canción pa' la más chiquitita de todas.flac
    Track gain : -6.34 dB Peak : 0.988556 CRC32 hash (test run) : 71AB8E58 CRC32 hash : 71AB8E58 CRC32 hash (skip zero) : 57245668 AccurateRip v1 signature : 0A30DDFD AccurateRip v2 signature : 5747DD7C (F99D6C6E w/correction) ->Accurately ripped with different offset (v2, confidence 1/1, offset -1770) Statistics Read error : 0 Jitter error (maybe fixed) : 0 Retry sector count : 0 Damaged sector count : 0
    Track 12 Filename : /Users/paltsug/Desktop/Bello Barrio/12 Mauricio Redolés & Son Ellos Mismos - Descripción de la casa de Harrow Road para el año 2580.flac
    Track gain : -6.37 dB Peak : 0.988556 CRC32 hash (test run) : 2AA44B09 CRC32 hash : 2AA44B09 CRC32 hash (skip zero) : 6CD3AFEC AccurateRip v1 signature : 52FD86BB AccurateRip v2 signature : 63CF3D37 (8063D1D9 w/correction) ->Accurately ripped with different offset (v2, confidence 1/1, offset -1770) Statistics Read error : 0 Jitter error (maybe fixed) : 0 Retry sector count : 0 Damaged sector count : 0
    Track 13 Filename : /Users/paltsug/Desktop/Bello Barrio/13 Mauricio Redolés & Son Ellos Mismos - Yo también viví en Harrow Road.flac
    Track gain : -9.07 dB Peak : 0.988556 CRC32 hash (test run) : 90E1705F CRC32 hash : 90E1705F CRC32 hash (skip zero) : B69EE228 AccurateRip v1 signature : 034F7422 AccurateRip v2 signature : 16367840 (96DA6140 w/correction) ->Accurately ripped with different offset (v2, confidence 1/1, offset -1770) Statistics Read error : 0 Jitter error (maybe fixed) : 0 Retry sector count : 0 Damaged sector count : 0
    Track 14 Filename : /Users/paltsug/Desktop/Bello Barrio/14 Mauricio Redolés & Son Ellos Mismos - Verde susurro pa' Georgina.flac
    Track gain : -2.90 dB Peak : 0.881042 CRC32 hash (test run) : EEDFFFF9 CRC32 hash : EEDFFFF9 CRC32 hash (skip zero) : 111E0186 AccurateRip v1 signature : 8240856D AccurateRip v2 signature : 501861CB (3CBF3ADA w/correction) ->Accurately ripped with different offset (v2, confidence 1/1, offset -1770) Statistics Read error : 0 Jitter error (maybe fixed) : 0 Retry sector count : 0 Damaged sector count : 0
    Track 15 Filename : /Users/paltsug/Desktop/Bello Barrio/15 Mauricio Redolés & Son Ellos Mismos - Epitafio.flac
    Track gain : -7.07 dB Peak : 0.988556 CRC32 hash (test run) : 1C9B569A CRC32 hash : 1C9B569A CRC32 hash (skip zero) : 3F6448E5 AccurateRip v1 signature : 5A8BDEA3 AccurateRip v2 signature : 9839662F (643B38BB w/correction) ->Accurately ripped with different offset (v2, confidence 1/1, offset -1770) Statistics Read error : 0 Jitter error (maybe fixed) : 0 Retry sector count : 0 Damaged sector count : 0
    Track 16 Filename : /Users/paltsug/Desktop/Bello Barrio/16 Mauricio Redolés & Son Ellos Mismos - Chilean Business.flac
    Track gain : -5.17 dB Peak : 0.881042 CRC32 hash (test run) : D4A0AADA CRC32 hash : D4A0AADA CRC32 hash (skip zero) : 460118DF AccurateRip v1 signature : 056A7A77 AccurateRip v2 signature : 506E3303 (9A6AD371 w/correction) ->Accurately ripped with different offset (v2, confidence 1/1, offset -1770) Statistics Read error : 0 Jitter error (maybe fixed) : 0 Retry sector count : 0 Damaged sector count : 0
    Track 17 Filename : /Users/paltsug/Desktop/Bello Barrio/17 Mauricio Redolés & Son Ellos Mismos - El maestro Sandovar.flac
    Track gain : -9.88 dB Peak : 0.988556 CRC32 hash (test run) : F5399140 CRC32 hash : F5399140 CRC32 hash (skip zero) : E9DEB439 AccurateRip v1 signature : A27ECA16 AccurateRip v2 signature : 6DFFE652 (3AACF24D w/correction) ->Accurately ripped with different offset (v2, confidence 1/1, offset -1770) Statistics Read error : 0 Jitter error (maybe fixed) : 0 Retry sector count : 0 Damaged sector count : 0
    Track 18 Filename : /Users/paltsug/Desktop/Bello Barrio/18 Mauricio Redolés & Son Ellos Mismos - Bello Barrio.flac
    Track gain : -3.91 dB Peak : 0.988556 CRC32 hash (test run) : 6DC2BE63 CRC32 hash : 6DC2BE63 CRC32 hash (skip zero) : 944FD5FF AccurateRip v1 signature : B586F7E7 AccurateRip v2 signature : 6C05E58E (8CF76735 w/correction) ->Accurately ripped with different offset (v2, confidence 1/1, offset -1770) Statistics Read error : 0 Jitter error (maybe fixed) : 0 Retry sector count : 0 Damaged sector count : 0
    No errors occurred
    End of status report
    -----BEGIN XLD SIGNATURE-----mPyjgPUONh5qvU9mVVxgp8gveFHUhUIGBcnGOqz_ZwuMS0GfPFQHWMOFag3kRamgS0YeoNRIoDutAEhQH6LD1nfq2Oo6eUzNzS67ztW-----END XLD SIGNATURE-----

    Содержание индексной карты (.CUE)

    TITLE "Bello Barrio"PERFORMER "Mauricio Redolés & Son Ellos Mismos"REM GENRE "Folk-Rock, Blues"REM DATE "1999"REM DISCNUMBER 1REM TOTALDISCS 1REM DISCID E80B8A12REM REPLAYGAIN_ALBUM_GAIN -8.29 dBREM REPLAYGAIN_ALBUM_PEAK 0.988556FILE "01 Mauricio Redolés & Son Ellos Mismos - Blues de Santiago.flac" WAVE  TRACK 01 AUDIO    TITLE "Blues de Santiago"    REM REPLAYGAIN_TRACK_GAIN -9.97 dB    REM REPLAYGAIN_TRACK_PEAK 0.988556    INDEX 00 00:00:00    INDEX 01 00:00:01FILE "02 Mauricio Redolés & Son Ellos Mismos - Fulgor y muerte de John Lennon.flac" WAVE  TRACK 02 AUDIO    TITLE "Fulgor y muerte de John Lennon"    REM REPLAYGAIN_TRACK_GAIN -6.31 dB    REM REPLAYGAIN_TRACK_PEAK 0.988556    INDEX 01 00:00:00FILE "03 Mauricio Redolés & Son Ellos Mismos - Nutrias en abril.flac" WAVE  TRACK 03 AUDIO    TITLE "Nutrias en abril"    REM REPLAYGAIN_TRACK_GAIN -10.04 dB    REM REPLAYGAIN_TRACK_PEAK 0.988556    INDEX 01 00:00:00FILE "04 Mauricio Redolés & Son Ellos Mismos - Nada.flac" WAVE  TRACK 04 AUDIO    TITLE "Nada"    REM COMMENT "Letra de Carlos Pezoa Véliz"    REM REPLAYGAIN_TRACK_GAIN -9.46 dB    REM REPLAYGAIN_TRACK_PEAK 0.988556    INDEX 01 00:00:00FILE "05 Mauricio Redolés & Son Ellos Mismos - No importa.flac" WAVE  TRACK 05 AUDIO    TITLE "No importa"    REM REPLAYGAIN_TRACK_GAIN -5.90 dB    REM REPLAYGAIN_TRACK_PEAK 0.881042    INDEX 01 00:00:00FILE "06 Mauricio Redolés & Son Ellos Mismos - Triste funcionario policial.flac" WAVE  TRACK 06 AUDIO    TITLE "Triste funcionario policial"    REM REPLAYGAIN_TRACK_GAIN -8.53 dB    REM REPLAYGAIN_TRACK_PEAK 0.785248    INDEX 01 00:00:00FILE "07 Mauricio Redolés & Son Ellos Mismos - La persecusión del poema y la poesía según mi padre conmigo jugando futbol.flac" WAVE  TRACK 07 AUDIO    TITLE "La persecusión del poema y la poesía según mi padre conmigo jugando futbol"    REM REPLAYGAIN_TRACK_GAIN -6.69 dB    REM REPLAYGAIN_TRACK_PEAK 0.881042    INDEX 01 00:00:00FILE "08 Mauricio Redolés & Son Ellos Mismos - Ciertos especta culos de Santiago de Chile.flac" WAVE  TRACK 08 AUDIO    TITLE "Ciertos especta culos de Santiago de Chile"    REM COMMENT "Letra de Mauricio Redolés
Música de Alejandro Rivera
Arreglo por Alejandra Jadresic"    REM REPLAYGAIN_TRACK_GAIN -7.55 dB    REM REPLAYGAIN_TRACK_PEAK 0.988556    INDEX 01 00:00:00FILE "09 Mauricio Redolés & Son Ellos Mismos - Chaos.flac" WAVE  TRACK 09 AUDIO    TITLE "Chaos"    REM REPLAYGAIN_TRACK_GAIN -6.20 dB    REM REPLAYGAIN_TRACK_PEAK 0.988556    INDEX 01 00:00:00FILE "10 Mauricio Redolés & Son Ellos Mismos - Adivinanza lengua o labio.flac" WAVE  TRACK 10 AUDIO    TITLE "Adivinanza lengua o labio"    REM REPLAYGAIN_TRACK_GAIN 0.98 dB    REM REPLAYGAIN_TRACK_PEAK 0.785248    INDEX 01 00:00:00FILE "11 Mauricio Redolés & Son Ellos Mismos - Canción pa' la más chiquitita de todas.flac" WAVE  TRACK 11 AUDIO    TITLE "Canción pa' la más chiquitita de todas"    REM REPLAYGAIN_TRACK_GAIN -6.34 dB    REM REPLAYGAIN_TRACK_PEAK 0.988556    INDEX 01 00:00:00FILE "12 Mauricio Redolés & Son Ellos Mismos - Descripción de la casa de Harrow Road para el año 2580.flac" WAVE  TRACK 12 AUDIO    TITLE "Descripción de la casa de Harrow Road para el año 2580"    REM REPLAYGAIN_TRACK_GAIN -6.37 dB    REM REPLAYGAIN_TRACK_PEAK 0.988556    INDEX 01 00:00:00FILE "13 Mauricio Redolés & Son Ellos Mismos - Yo también viví en Harrow Road.flac" WAVE  TRACK 13 AUDIO    TITLE "Yo también viví en Harrow Road"    REM REPLAYGAIN_TRACK_GAIN -9.07 dB    REM REPLAYGAIN_TRACK_PEAK 0.988556    INDEX 01 00:00:00FILE "14 Mauricio Redolés & Son Ellos Mismos - Verde susurro pa' Georgina.flac" WAVE  TRACK 14 AUDIO    TITLE "Verde susurro pa' Georgina"    REM REPLAYGAIN_TRACK_GAIN -2.90 dB    REM REPLAYGAIN_TRACK_PEAK 0.881042    INDEX 01 00:00:00FILE "15 Mauricio Redolés & Son Ellos Mismos - Epitafio.flac" WAVE  TRACK 15 AUDIO    TITLE "Epitafio"    REM COMMENT "Letra de Roque Dalton"    REM REPLAYGAIN_TRACK_GAIN -7.07 dB    REM REPLAYGAIN_TRACK_PEAK 0.988556    INDEX 01 00:00:00FILE "16 Mauricio Redolés & Son Ellos Mismos - Chilean Business.flac" WAVE  TRACK 16 AUDIO    TITLE "Chilean Business"    REM REPLAYGAIN_TRACK_GAIN -5.17 dB    REM REPLAYGAIN_TRACK_PEAK 0.881042    INDEX 01 00:00:00FILE "17 Mauricio Redolés & Son Ellos Mismos - El maestro Sandovar.flac" WAVE  TRACK 17 AUDIO    TITLE "El maestro Sandovar"    REM REPLAYGAIN_TRACK_GAIN -9.88 dB    REM REPLAYGAIN_TRACK_PEAK 0.988556    INDEX 01 00:00:00FILE "18 Mauricio Redolés & Son Ellos Mismos - Bello Barrio.flac" WAVE  TRACK 18 AUDIO    TITLE "Bello Barrio"    REM REPLAYGAIN_TRACK_GAIN -3.91 dB    REM REPLAYGAIN_TRACK_PEAK 0.988556    INDEX 01 00:00:00
  • Folk-Rock (lossless) > (Celtic Rock) [WEB] Excalibur - Alan Simon - The Ladies of the Lake - 2018, FLAC (tracks), lossless
  • 22-Окт-2018 19:11

    Ranku



    Excalibur - Alan Simon

    The Ladies of the Lake





    • Жанр: Celtic Rock
    • Носитель: WEB
    • Год издания: 2018
    • Издатель: Babaika Productions
    • Страна: UK
    • Аудиокодек: FLAC (*.flac)
    • Тип рипа: tracks
    • Продолжительность: 00:50:15
    • Источник (спасибо): NBMus
    • WEB релиз: qobuz
    • Наличие сканов: front

    01 - The Origins (00:03:34)
    02 - Secret Garden (00:03:16)
    03 - The Girl and the Demon (00:03:19)
    04 - Skye (00:03:13)
    05 - Calling for You (00:04:19)
    06 - The Last Lament of a Fairy (00:02:48)
    07 - There is Someone (00:02:52)
    08 - Silver Moon (00:03:23)
    09 - Yseult (00:03:23)
    10 - Sacrifice (00:04:13)
    11 - A Prayer for My Lover (00:02:37)
    12 - Morning Song (00:03:29)
    13 - The Passion (00:03:31)
    14 - Dreaming Again (00:03:24)
    15 - Dun Angus II (00:02:51)

    -
    --

    • Лог проверки качества •

    -----------------------
    DON'T MODIFY THIS FILE
    -----------------------
    PERFORMER: auCDtect Task Manager, ver. 1.5.1RC3 build 1.5.1.4Copyright (c) 2008-2010 y-soft. All rights reservedhttp://y-soft.org
    ANALYZER: auCDtect: CD records authenticity detector, version 0.8.2Copyright (c) 2004 Oleg Berngardt. All rights reserved.Copyright (c) 2004 Alexander Djourik. All rights reserved.
    FILE: 15. Dun Angus II.flac Size: 20566564 Hash: D1E2E02871AB16578C6D1D1EAC1ACB13 Accuracy: -m0 Conclusion: CDDA 100% Signature: 7C1E613AB49B0A5586DB91BE0AE162A2A3134E5EFILE: 14. Dreaming Again.flac Size: 21117382 Hash: 2B92779DD1B6EDBA66FB76EE5B85FF2E Accuracy: -m0 Conclusion: CDDA 100% Signature: 402E39F38BA0C4A85E5EBF7D14BF14556A16BFCEFILE: 13. The Passion.flac Size: 24790241 Hash: 473B313418D1B44679A4B0CD2EB3B560 Accuracy: -m0 Conclusion: CDDA 100% Signature: D0200EDA06413E1F06F6B783DD29F18245DEDDFAFILE: 12. Morning Song.flac Size: 22801381 Hash: E5B2C70AF2A0D41BFF21698F78AF039C Accuracy: -m0 Conclusion: CDDA 100% Signature: 94E01295DEE7BE4852DEB3976662AC288E22DD10FILE: 11. A Prayer for My Lover.flac Size: 15987902 Hash: 12E11F8CD1FB973A9A2EA5EBB194E4DC Accuracy: -m0 Conclusion: CDDA 100% Signature: 1A65C71BF0F574DAF2D03A8EB82AA1B1DF1942E0FILE: 10. Sacrifice.flac Size: 26282985 Hash: 5A1C1FE1F3C26AB0E21D3E511DF1BCC8 Accuracy: -m0 Conclusion: CDDA 100% Signature: D726D5E2489285DA1289F5F30065A16FE03DAFA7FILE: 09. Yseult.flac Size: 19817860 Hash: A3E7CF597DD7AF142FDA07123716DE17 Accuracy: -m0 Conclusion: CDDA 100% Signature: EFEFDD6338823F686BD6E52F6920B40B159A707BFILE: 08. Silver Moon.flac Size: 23263502 Hash: F9BA23CC1AA69C64C766BBCAB2A59359 Accuracy: -m0 Conclusion: CDDA 100% Signature: 4F5ABADA883583B6397F8BDC9D43C22CCB9EE163FILE: 07. There is Someone.flac Size: 17015205 Hash: A32654DE61DF39680849D5A306EA09F6 Accuracy: -m0 Conclusion: CDDA 99% Signature: F2D899EEA0A6D667FE856468D2D28E66E23F6833FILE: 06. The Last Lament of a Fairy.flac Size: 17776884 Hash: D6E5D82E95C922A276575322B205F2B9 Accuracy: -m0 Conclusion: CDDA 100% Signature: 4D994BE701FBBAC9B80856802CF4715F483A77B1FILE: 05. Calling for You.flac Size: 30148397 Hash: 58C21B99311E37BFB65D58EE9DFF7E46 Accuracy: -m0 Conclusion: CDDA 100% Signature: DC2472C5A3F641957A367F507DE895B7A5B4BE7AFILE: 04. Skye.flac Size: 22026659 Hash: ABAF81065F80D1C192CC7B847AC1FB4C Accuracy: -m0 Conclusion: CDDA 100% Signature: 6AE0D6A38B3C1F3350A5EB5FFAA432CF313AC294FILE: 03. The Girl and the Demon.flac Size: 22038122 Hash: 9D286576F771C662E07468E3795B4754 Accuracy: -m0 Conclusion: CDDA 100% Signature: 6E9CB75B082DE69A0A9A3B8C8DBDF7779ABBACDEFILE: 02. Secret Garden.flac Size: 21390135 Hash: 2A8E81CB7BACD1665A877EC4C637BDB2 Accuracy: -m0 Conclusion: CDDA 99% Signature: CBA29FA60CD5A8E3D37A06119E5EB179F6180235FILE: 01. The Origins.flac Size: 23056551 Hash: D24B7134484C5FCEE0B19D4B0BE691BE Accuracy: -m0 Conclusion: CDDA 100% Signature: 51C12A20B0B798F0857561F0D032744CE0047E96
    -
  • Folk-Rock (lossless) > (Folk) [WEB] Mawkin - Down Among the Dead Men - 2018, FLAC (tracks), lossless
  • 22-Окт-2018 18:08

    Ranku



    Mawkin

    Down Among the Dead Men





    • Жанр: Folk
    • Носитель: WEB
    • Год издания: 2018
    • Издатель: Good Form Records
    • Аудиокодек: FLAC (*.flac)
    • Тип рипа: tracks
    • Продолжительность: 00:45:13
    • Источник (спасибо): NBMus
    • WEB релиз: 7digital
    • Наличие сканов: front

    01 - Midnight Ranger (00:03:51)
    02 - Blind Fiddler (00:03:47)
    03 - Smugglers' Song (00:04:44)
    04 - To Wednesday (00:04:36)
    05 - Old Fool (00:03:01)
    06 - Saxons Pretty Girls (00:03:41)
    07 - Oh Dear Oh (00:03:45)
    08 - Diamond Ship (00:03:32)
    09 - Big Fish, Little Fish, Ugly Fish (00:03:14)
    10 - Down Among the Dead Men (00:05:19)
    11 - Cooke's Wafer (00:02:04)
    12 - Jolly Roving Tar (00:03:33)

    -
    -

    • Замер динамического диапазона •

    foobar2000 1.3.17 / Замер динамического диапазона (DR) 1.1.1Дата отчёта:  2018-10-08 22:20:00
    --------------------------------------------------------------------------------Анализ: Mawkin / Down Among the Dead Men--------------------------------------------------------------------------------
    DR Пики RMS Продолжительность трека--------------------------------------------------------------------------------DR7 -0.79 дБ -9.23 дБ 3:52 01-Midnight RangerDR7 -0.78 дБ -9.02 дБ 3:47 02-Blind FiddlerDR7 -0.63 дБ -9.46 дБ 4:45 03-Smugglers' SongDR7 -0.67 дБ -10.37 дБ 4:36 04-To WednesdayDR7 -0.53 дБ -8.53 дБ 3:02 05-Old FoolDR8 -0.54 дБ -10.49 дБ 3:41 06-Saxons / Pretty GirlsDR7 -0.67 дБ -8.33 дБ 3:46 07-Oh Dear OhDR7 -0.78 дБ -8.99 дБ 3:32 08-Diamond ShipDR7 -0.67 дБ -9.09 дБ 3:14 09-Big Fish, Little Fish, Ugly FishDR7 -0.51 дБ -8.25 дБ 5:20 10-Down Among the Dead MenDR9 -3.45 дБ -15.59 дБ 2:04 11-Cooke's WaferDR9 -0.78 дБ -11.71 дБ 3:34 12-Jolly Roving Tar--------------------------------------------------------------------------------
    Количество треков: 12Реальные значения DR: DR7
    Частота: 44100 ГцКаналов: 2Разрядность: 16Битрейт: 777 кбит/сКодек: FLAC================================================================================
    -

    • Лог проверки качества •

    -----------------------
    DON'T MODIFY THIS FILE
    -----------------------
    PERFORMER: auCDtect Task Manager, ver. 1.5.1RC3 build 1.5.1.4Copyright (c) 2008-2010 y-soft. All rights reservedhttp://y-soft.org
    ANALYZER: auCDtect: CD records authenticity detector, version 0.8.2Copyright (c) 2004 Oleg Berngardt. All rights reserved.Copyright (c) 2004 Alexander Djourik. All rights reserved.
    FILE: 12.flac Size: 20957311 Hash: 18273BE98F42A4E809ED1125A2E7CD2E Accuracy: -m0 Conclusion: CDDA 100% Signature: 3824AD4565FD28B34BBEF64EC3F19BC70C83337CFILE: 11.flac Size: 12946958 Hash: A7F7212045E9244EC2310A4139F3B90A Accuracy: -m0 Conclusion: CDDA 100% Signature: 3A8E495393DEF6C07BC15A0219C27A0CC4B33394FILE: 10.flac Size: 37739677 Hash: 48A827BD4D8752BDBA58A821916720F7 Accuracy: -m0 Conclusion: CDDA 100% Signature: A698DAE9F7A98EEC5309FD711067F312E83D12DEFILE: 09.flac Size: 21739897 Hash: 45FA74B9264EABD5DE0BAB43A86FBBD2 Accuracy: -m0 Conclusion: CDDA 99% Signature: 5B3536BA2476ED9DFE1711F98092F72901F5EBF3FILE: 08.flac Size: 23507583 Hash: FDB23D0E1E1E7C7AF832E3B921345543 Accuracy: -m0 Conclusion: CDDA 100% Signature: 0EF74B411A17D6F9DBA696324AE0B140622B3C04FILE: 07.flac Size: 25551094 Hash: BC628B209A9CFF60FEE87056B329AD73 Accuracy: -m0 Conclusion: CDDA 100% Signature: 0C9DA1841986DF51FAECAF73D6AFEB962421060CFILE: 06.flac Size: 25535350 Hash: 653119D5CAF30284B367F8149BC31334 Accuracy: -m0 Conclusion: CDDA 100% Signature: 71300EDBE042D154B2396BFD3CD4B8D062187C27FILE: 05.flac Size: 23394812 Hash: 2107414A7B31BF9D59EF7351EFCFF815 Accuracy: -m0 Conclusion: CDDA 99% Signature: 6DC3CEF07D0151BC805D0FCDFCE61729F22A6C92FILE: 04.flac Size: 31137134 Hash: 079AED13F67A6EFC9AFE8099A45F7EBC Accuracy: -m0 Conclusion: CDDA 100% Signature: 236069B40BE776737DE75E067ECC041B7CEE2C27FILE: 03.flac Size: 30838833 Hash: 3D1E155CEF412AE16EFE7FDB35560A6D Accuracy: -m0 Conclusion: CDDA 100% Signature: 453343F045908175E44628A3D6A45E94680CFEDDFILE: 02.flac Size: 25400847 Hash: F038287B5FB99E1982BDAD1904488AF1 Accuracy: -m0 Conclusion: CDDA 100% Signature: 6D75600545E48F9EE13BEF0278A79A3DDA5AC558FILE: 01.flac Size: 25870230 Hash: F5F2ADAE5A33F1F6A5C504B9E19523B9 Accuracy: -m0 Conclusion: CDDA 99% Signature: B3607F08D00B2BCCC6020189D7DEB65AA455D21B
    -
Sitemap