Поиск Результатов поиска: 500

  • Наше кино > Собачье счастье (Александр Згуриди, Нана Клдиашвили) [1991, детский, VHSRip]
  • 12-Сен-2017 08:52

    Ranku

    Собачье счастье Год выпуска: 1991.
    Жанр: детский.
    Продолжительность: 01:05:38.
    Режиссеры: Александр Згуриди, Нана Клдиашвили.
    В ролях:
    Дима Мосолов, Александр Овчинников, Николай Ермаков, Надежда Бутырцева, Олег Вавилов, Светлана Коркошко, Михаил Зимин, Геннадий Кочкожаров, Юрий Саранцев, Мария Скворцова.
    Описание:
    Пудель по кличке Малыш увязался за своим маленьким хозяином в школу, но там был выдворен на школьный двор и потерялся. Андрей и его родители искали Малыша по всему городу, но тот как в воду канул.
    Доп. информация:
    Страна: СССР .
    Киностудия: Центрнаучфильм, "Орбита".
    Авторы сценария: Нана Клдиашвили, Александр Згуриди.
    Оператор: Александр Павлов.
    Композитор: Андрей Петров.
    Художник: Лев Грудев.
    Премьера: июнь 1992 года.

    Релиз
    Огромное спасибо Ellies731 за старую кассету и видеозахват!!!
    Работа с исходником, вырезание рекламы с аомощью программы Avidemux 2.6.21.
    Качество, конечно, не идеальное, но других вариантов пока не найдено.


    Качество: VHSRip
    Формат: mpg
    Видео: 720x576, 25.000 fps, mpeg2, ~8000 kbps, 0.772 bit/pixel*frame
    Аудио: 48 kHz, MPEG Audio, 2/0 (L,R) ch, ~224 kbps

    Отчет MI

    General
    Complete name : Soba4'e.s4ast'e.1991.mpeg2.VHSRip.PAL.fenixclub.mpg
    Format : MPEG-PS
    File size : 3.84 GiB
    Duration : 1h 5mn
    Overall bit rate : 8 378 Kbps
    Video
    ID : 224 (0xE0)
    Format : MPEG Video
    Format version : Version 2
    Format profile : [email protected]
    Format settings, BVOP : Yes
    Format settings, Matrix : Default
    Format settings, GOP : M=3, N=12
    Duration : 1h 5mn
    Bit rate : 8 000 Kbps
    Width : 720 pixels
    Height : 576 pixels
    Display aspect ratio : 4:3
    Frame rate : 25.000 fps
    Standard : PAL
    Color space : YUV
    Chroma subsampling : 4:2:0
    Bit depth : 8 bits
    Scan type : Progressive
    Compression mode : Lossy
    Bits/(Pixel*Frame) : 0.772
    Time code of first frame : 00:00:00:00
    Time code source : Group of pictures header
    GOP, Open/Closed : Closed
    Stream size : 3.66 GiB (95%)
    Color primaries : BT.601 PAL
    Transfer characteristics : BT.470 System B, BT.470 System G
    Matrix coefficients : BT.601
    Audio
    ID : 192 (0xC0)
    Format : MPEG Audio
    Format version : Version 1
    Format profile : Layer 2
    Duration : 1h 5mn
    Bit rate mode : Constant
    Bit rate : 224 Kbps
    Channel(s) : 2 channels
    Sampling rate : 48.0 KHz
    Compression mode : Lossy
    Delay relative to video : 140ms
    Stream size : 105 MiB (3%)
    Menu

    Скриншоты


    Торрент перезалит 11.09.2017 22:57 в связи с заменой рипа.
  • Наше кино > Сын председателя / Сын старшыні (Вячеслав Никифоров) [1976, драма, DVB]
  • 12-Сен-2017 08:52

    Ranku

    Сын председателя / Сын старшыні
    Жанр: драма
    Год выпуска: 1976
    Продолжительность: 01:21:15
    Режиссёр: Вячеслав Никифоров
    В ролях: Александр Самойлов, Владимир Самойлов, Татьяна Алексеева, Бронюс Бабкаускас, Ольга Гаспарова, Михаил Кокшенов, Ирина Мазуркевич, Римма Маркова, Лилита Озолиня, Нина Розанцева, Анатолий Столбов
    Описание: Всеми уважаемый председатель Яков Русак, уходя на пенсию, выдвигает в качестве преемника своего сына Алексея, окончившего институт и защитившего диссертацию. Однако Русак-младший, по-своему мечтающий о переустройстве своего села, не собирается продолжать традиции отца в руководстве колхозом...
    Доп. информация: Запись потока *.ts с наземного цифрового телеканала "Беларусь 3".
    Сценарист: Николай Матуковский
    Оператор: Виталий Николаев
    Композитор: Сергей Кортес
    Художники: Евгений Игнатьев, Вячеслав Кубарев
    Производство: Беларусьфильм
    Премьера: октябрь 1976
    Количество зрителей в СССР: 20 200 000

    КРИТИКА:

    «СПУТНИК КИНОЗРИТЕЛЯ», ОКТЯБРЬ 1976 ГОДА
    И в ту самую минуту, когда председатель дотла сожженного фашистами белорусского колхоза вбивал в землю кол, говоря, что на этом месте будет клуб,— в ту самую минуту прискакал на коне какой-то оголец: «Дядя Яша, твоя Полина сына родила!». У председателя колхоза Якова Русака родился сын Алексей. Промелькнут кадры — старые фотографии, на них — крошечный, маленький, растущий, выросший, совсем взрослый Алексей. Как эти кадры, промелькнула и жизнь Якова Русака и пришла пора думать ему о будущем колхоза. Клуб — не клуб, а Дворец культуры — вырос, сын — вырос, вот ему и решил вверить Яков судьбу своего детища. Простой, по мысли старшего Русака, расклад оказался не столь простым для Русака-младшего. У него другое призвание, другие виды на будущее и оставаться — пусть и в родном — колхозе он как-то не предполагал.
    Но остался. Конечно же, не из-за того, что отец по отдельности поговорил со всеми членами правления и те согласились: пусть-де парень пообживется, пообвыкнет в колхозе, а потом мы его председателем и поставим.
    Если бы знал Яков Русак, чем обернется для него весь этот до тонкостей продуманный план... Ведь есть тонкости, которые не способны учесть никакие хитроумные вычислительные устройства, не то что человек. И одна из них — время, которое меняется быстрее, чем мы успеем к нему приспособиться. То, что вчера в колхозе «Революция» считалось крупной победой, сегодня уже победой не выглядит, те методы работы с людьми, которые могли сгодиться вчера, сегодня уже не годятся. Эту с виду простую истину трудно будет понять Якову Русаку, но она предельно ясна Алексею Русаку. Оказывается, и прекрасный, из стекла и бетона, Дворец культуры, и новые, добротные избы — это еще далеко не все, чем жив человек. Труд хлеборобов колхоза «Революция» порою бывал столь тяжким, что, говоря словами одной героини фильма, не упомнишь, когда в последний раз и книжку читал. Да, такой труд до седьмого пота, до изнеможения, когда люди заменяли машины, потому что машин попросту не существовало, такой труд был суровой необходимостью. Вчера. Сегодня же — зачем надрываться? Только лишь из-за того, что так работать — привычнее, что так — спокойнее и увереннее? Такую логику хозяйствования не может принять Алексей, и уже вроде бы зреет примелькавшийся конфликт отцов и детей, и вызрел бы он и наверняка взорвался бы, не пойми Русак-старший всей неотвратимости процессов, проходящих в современной деревне, не осознай он, что наступило то самое горькое время, когда надо уступить место завтрашнему дню.
    Вовсе не для оживления сюжета, как это зачастую случается в фильмах на «производственную тему», вводят авторы в повествование историю трудной любви Алексея и Марины. Авторы фильма не перебирают всех подробностей этого чувства, а лишь пунктирно намечают главные его вехи: любовь — разлука — любовь. Фильм завершится так же, как и начался, семейной фотографией. ..
    Виктор Туровский
    Релиз:
    Благодарность: за помощь с недостающим материалом Bartimeyse и PavelDAS. Обоим большое спасибо!
    Мои раздачи:Давно разыскивается. Представлен впервые в Инете!
    Во время трансляции фильма присутствуют полупрозрачные анонсы передач внизу экрана (видно на одном из скринов).
    Качество: DVB
    Контейнер: TS
    Видео кодек: H.264
    Аудио кодек: MP2
    Видео: MPEG4 Video (H264) 720(785)x576 (49:36) 25fps, 2 267 kb/s
    Аудио: MPEG Audio 48000Hz stereo 256kbps
    Семпл: http://www.sendspace.com/file/2hdjb1

    MediaInfo

    General
    ID : 1 (0x1)
    Complete name : D:\Новая земля 2\Художественные фильмы\Сын председателя (1976)\Сын председателя (1976).ts
    Format : MPEG-TS
    File size : 1.51 GiB
    Duration : 1 h 21 min
    Overall bit rate mode : Variable
    Overall bit rate : 2 657 kb/s
    Maximum Overall bit rate : 35.5 Mb/s
    Video
    ID : 4113 (0x1011)
    Menu ID : 1 (0x1)
    Format : AVC
    Format/Info : Advanced Video Codec
    Format profile : [email protected]
    Format settings, CABAC : Yes
    Format settings, ReFrames : 4 frames
    Format settings, GOP : M=4, N=24
    Codec ID : 27
    Duration : 1 h 21 min
    Bit rate mode : Variable
    Bit rate : 2 267 kb/s
    Maximum bit rate : 40.0 Mb/s
    Width : 720 pixels
    Height : 576 pixels
    Display aspect ratio : 4:3
    Frame rate : 25.000 FPS
    Standard : PAL
    Color space : YUV
    Chroma subsampling : 4:2:0
    Bit depth : 8 bits
    Scan type : MBAFF
    Scan type, store method : Interleaved fields
    Scan order : Top Field First
    Bits/(Pixel*Frame) : 0.219
    Stream size : 1.29 GiB (85%)
    Color range : Limited
    Color primaries : BT.601 PAL
    Transfer characteristics : BT.470 System B, BT.470 System G
    Matrix coefficients : BT.601
    Audio
    ID : 4352 (0x1100)
    Menu ID : 1 (0x1)
    Format : MPEG Audio
    Format version : Version 1
    Format profile : Layer 2
    Codec ID : 4
    Duration : 1 h 21 min
    Bit rate mode : Constant
    Bit rate : 256 kb/s
    Channel(s) : 2 channels
    Sampling rate : 48.0 kHz
    Compression mode : Lossy
    Stream size : 149 MiB (10%)
    Language : Russian
  • Наше кино > Дон Кихот (Григорий Козинцев) [1957, драма, DVDRip]
  • 12-Сен-2017 08:51

    Ranku

    Дон Кихот
    Жанр: драма
    Год выпуска: 1957
    Продолжительность: 01:41:32

    Режиссёр: Григорий Козинцев
    В ролях: Николай Черкасов, Юрий Толубеев, Людмила Касьянова, Серафима Бирман, Светлана Григорьева, Василий Максимов, Виктор Колпаков, Тамилла Агамирова, Георгий Вицин, Бруно Фрейндлих, Лидия Вертинская, Галина Волчек, Ольга Викландт, Александр Бениаминов, С. Цомаев

    Описание: Экранизация одноименной пьесы Е.Шварца по мотивам романа Мигеля де Сервантеса Сааведры о забавных и трогательных приключениях идальго Алонсо Кехано, влюбленного в рыцарские романы и решившего самому сделаться рыцарем и отправиться в поход, хотя времена рыцарства давно миновали...
    Первый цветной широкоэкранный стереозвуковой фильм киностудии "Ленфильм".


    Качество видео: DVDRip
    Формат видео: AVI
    Видео: 704x304 (2.32:1), 25 fps, XviD build 73 ~1594 kbps avg, 0.30 bit/pixel
    Аудио: 48 kHz, AC3 Dolby Digital, 3/2 (L,C,R,l,r) + LFE ch, ~448 kbps

    MediaInfo

    General
    Complete name : H:\Дон.Кихот.1967.dvdrip_[1.46]_[teko].avi
    Format : AVI
    Format/Info : Audio Video Interleave
    File size : 1.46 GiB
    Duration : 1h 41mn
    Overall bit rate : 2 053 Kbps
    Writing application : VirtualDubMod 1.5.10.3 | www.virtualdub-fr.org || (build 2550/release)
    Writing library : VirtualDubMod build 2550/release
    Video
    ID : 0
    Format : MPEG-4 Visual
    Format profile : Advanced [email protected]
    Format settings, BVOP : 2
    Format settings, QPel : No
    Format settings, GMC : No warppoints
    Format settings, Matrix : Custom
    Codec ID : XVID
    Codec ID/Hint : XviD
    Duration : 1h 41mn
    Bit rate : 1 595 Kbps
    Width : 704 pixels
    Height : 304 pixels
    Display aspect ratio : 2.35:1
    Frame rate : 25.000 fps
    Color space : YUV
    Chroma subsampling : 4:2:0
    Bit depth : 8 bits
    Scan type : Progressive
    Compression mode : Lossy
    Bits/(Pixel*Frame) : 0.298
    Stream size : 1.13 GiB (78%)
    Writing library : XviD 73
    Audio
    ID : 1
    Format : AC-3
    Format/Info : Audio Coding 3
    Mode extension : CM (complete main)
    Format settings, Endianness : Big
    Codec ID : 2000
    Duration : 1h 41mn
    Bit rate mode : Constant
    Bit rate : 448 Kbps
    Channel(s) : 6 channels
    Channel positions : Front: L C R, Side: L R, LFE
    Sampling rate : 48.0 KHz
    Frame rate : 31.250 fps (1536 spf)
    Compression mode : Lossy
    Delay relative to video : 500ms
    Stream size : 325 MiB (22%)
    Alignment : Split accross interleaves
    Interleave, duration : 40 ms (1.00 video frame)
    Interleave, preload duratio : 500 ms
    Релиз группы:
    --
  • Наше кино > Помни имя свое (Сергей Колосов) [1974, драма, DVDRip]
  • 12-Сен-2017 08:50

    Ranku

    Помни имя свое

    Жанр: драма
    Год выпуска: 1974
    Продолжительность: 01:36:59

    Режиссёр: Cергей Колосов
    В ролях: Людмила Касаткина, Людмила Иванова, Лилия Давидович, Слава Астахов, Тадеуш Боровский, Рышарда Ханин, Владимир Ивашов, Леон Немчик, Любовь Соколова
    Описание: Во время второй мировой войны русская женщина Зинаида, попав в Освенцим, была разлучена с маленьким сыном. Но ребенок не погиб и не пропал. Его спасла и вырастила польская женщина...

    Качество видео: DVDRip
    Формат видео: AVI
    Видео: 624x480 (1.30:1), 25 fps, XviD build 73 ~1946 kbps avg, 0.26 bit/pixel
    Аудио: 48 kHz, AC3 Dolby Digital, 2/0 (L,R) ch, ~192 kbps

    MediaInfo

    General
    Complete name : H:\Помни.имя.свое.1974.dvdrip_[1.46]_[teko].avi
    Format : AVI
    Format/Info : Audio Video Interleave
    File size : 1.46 GiB
    Duration : 1h 36mn
    Overall bit rate : 2 148 Kbps
    Writing application : VirtualDubMod 1.5.10.3 | www.virtualdub-fr.org || (build 2550/release)
    Writing library : VirtualDubMod build 2550/release
    Video
    ID : 0
    Format : MPEG-4 Visual
    Format profile : Advanced [email protected]
    Format settings, BVOP : 2
    Format settings, QPel : No
    Format settings, GMC : No warppoints
    Format settings, Matrix : Custom
    Codec ID : XVID
    Codec ID/Hint : XviD
    Duration : 1h 36mn
    Bit rate : 1 947 Kbps
    Width : 624 pixels
    Height : 480 pixels
    Display aspect ratio : 4:3
    Frame rate : 25.000 fps
    Color space : YUV
    Chroma subsampling : 4:2:0
    Bit depth : 8 bits
    Scan type : Progressive
    Compression mode : Lossy
    Bits/(Pixel*Frame) : 0.260
    Stream size : 1.32 GiB (91%)
    Writing library : XviD 73
    Audio
    ID : 1
    Format : AC-3
    Format/Info : Audio Coding 3
    Mode extension : CM (complete main)
    Format settings, Endianness : Big
    Codec ID : 2000
    Duration : 1h 36mn
    Bit rate mode : Constant
    Bit rate : 192 Kbps
    Channel(s) : 2 channels
    Channel positions : Front: L R
    Sampling rate : 48.0 KHz
    Frame rate : 31.250 fps (1536 spf)
    Compression mode : Lossy
    Stream size : 133 MiB (9%)
    Alignment : Split accross interleaves
    Interleave, duration : 40 ms (1.00 video frame)
    Interleave, preload duratio : 500 ms
    Релиз группы:
    --
  • Наше кино > В городе Сочи темные ночи (Василий Пичул) [1989, драма, трагикомедия, SATRip]
  • 12-Сен-2017 08:49

    Ranku

    В городе Сочи темные ночи
    Жанр: Драма, трагикомедия
    Год выпуска: 1989
    Продолжительность: 02:02:23
    Режиссёр: Василий Пичул
    В ролях: Алексей Жарков, Наталья Негода, Андрей Соколов, Анастасия Вертинская, Александр Леньков, Людмила Иванова, Александр Миронов, Александр Кавалеров, Анна Тихонова, Григорий Мануков, Александр Негреба, Вацлав Дворжецкий
    Описание: Действие картины происходит в разных городах — столице, северном провинциальном городке и, конечно, в Сочи. Персонажи — обычные люди — врачи и артисты, продавцы и рабочие, оказавшиеся перед лицом последствий печальных событий перестройки. На улицах грязно, в магазинах пусто, в сознании неопределенность… Но жизнь продолжается и каждый пытается идти своей дорогой. Лена — 25-летняя недоучившаяся студентка, брошенная любимым человеком и пытающаяся хоть как-то наладить свою жизнь. Она плывет по течению, в надежде на лучший поворот событий. Сантехник Степаныч — матёрый аферист, ловко входящий в доверие к людям и исчезающий с крупными суммами денег. Другие действующие лица — их знакомые, коллеги, родные, пути которых постоянно пересекаются и самым неожиданным образом выстраивают ход событий этой истории...
    Семпл: http://multi-up.com/1109190
    Исходник: http://rutracker.org/forum/viewtopic.php?t=4521802
    Формат видео: AVI
    Качество видео: SATRip (DVB)
    Видео: XviD, 640х432, 25fps, 712kbps
    Аудио: MPEG Layer 3, 2ch, 48000Hz, 128kbps

    MediaInfo

    Общее
    Полное имя : V.Gorode.Sochi.1989.O.SATRip.700.CurHaJI.avi
    Формат : AVI
    Формат/Информация : Audio Video Interleave
    Размер файла : 744 Мбайт
    Продолжительность : 2 ч. 2 м.
    Общий поток : 850 Кбит/сек
    Название фильма : V.Gorode.Sochi.1989.O.SATRip.700.CurHaJI
    Программа кодирования : VirtualDubMod 1.5.10.3 | www.virtualdub-fr.org || (build 2550/release)
    Библиотека кодирования : VirtualDub build 35491/release
    Видео
    Идентификатор : 0
    Формат : MPEG-4 Visual
    Профиль формата : Advanced [email protected]
    Параметр BVOP формата : 1
    Параметр QPel формата : Нет
    Параметр GMC формата : Без точки перехода
    Параметр матрицы формата : Выборочная
    Идентификатор кодека : XVID
    Идентификатор кодека/Подсказка : XviD
    Продолжительность : 2 ч. 2 м.
    Битрейт : 712 Кбит/сек
    Ширина : 640 пикселей
    Высота : 432 пикселя
    Соотношение сторон : 3:2
    Частота кадров : 25,000 кадров/сек
    Цветовое пространство : YUV
    Субдискретизация насыщенности : 4:2:0
    Битовая глубина : 8 бит
    Тип развёртки : Прогрессивная
    Метод сжатия : С потерями
    Бит/(Пиксели*Кадры) : 0.103
    Размер потока : 623 Мбайт (84%)
    Библиотека кодирования : XviD 73
    Аудио
    Идентификатор : 1
    Формат : MPEG Audio
    Версия формата : Version 1
    Профиль формата : Layer 3
    Идентификатор кодека : 55
    Идентификатор кодека/Подсказка : MP3
    Продолжительность : 2 ч. 2 м.
    Вид битрейта : Постоянный
    Битрейт : 128 Кбит/сек
    Каналы : 2 канала
    Частота : 48,0 КГц
    Метод сжатия : С потерями
    Размер потока : 112 Мбайт (15%)
    Выравнивание : Соединение по промежуткам
    Продолжительность промежутка : 40 мс. (1,00 видеокадр)
    Время предзагрузки промежутка : 504 мс.
    Библиотека кодирования : LAME3.99r
    Настройки программы : -m s -V 4 -q 2 -lowpass 17 -b 128

    Скриншоты

  • Наше кино > Собачье счастье (Александр Згуриди, Нана Клдиашвили) [1991, детский, VHSRip]
  • 12-Сен-2017 08:48

    Ranku

    Собачье счастье Год выпуска: 1991.
    Жанр: детский.
    Продолжительность: 01:05:37.
    Режиссеры: Александр Згуриди, Нана Клдиашвили.
    В ролях:
    Дима Мосолов, Александр Овчинников, Николай Ермаков, Надежда Бутырцева, Олег Вавилов, Светлана Коркошко, Михаил Зимин, Геннадий Кочкожаров, Юрий Саранцев, Мария Скворцова.
    Описание:
    Пудель по кличке Малыш увязался за своим маленьким хозяином в школу, но там был выдворен на школьный двор и потерялся. Андрей и его родители искали Малыша по всему городу, но тот как в воду канул.
    Доп. информация:
    Страна: СССР .
    Киностудия: Центрнаучфильм, "Орбита".
    Авторы сценария: Нана Клдиашвили, Александр Згуриди.
    Оператор: Александр Павлов.
    Композитор: Андрей Петров.
    Художник: Лев Грудев.
    Премьера: июнь 1992 года.

    Релиз
    Огромное спасибо Ellies731 за предоставленый материал для рипа!!!
    Качество, конечно, не идеальное, но других вариантов пока не найдено.


    Качество: VHSRip
    Формат: AVI
    Видео: 688x528 (1.30:1), 25 fps, XviD build 73 ~2175 kbps avg, 0.24 bit/pixel
    Аудио: 48 kHz, AC3 Dolby Digital, 2/0 (L,R) ch, ~192 kbps

    Отчет MI

    General
    Complete name : Soba4'e.s4ast'e.1991.XviD.VHSRip.PAL.fenixclub_1.09.avi
    Format : AVI
    Format/Info : Audio Video Interleave
    File size : 1.09 GiB
    Duration : 1h 5mn
    Overall bit rate : 2 377 Kbps
    Writing application : VirtualDubMod 1.5.10.3 | www.virtualdub-fr.org || (build 2550/release)
    Writing library : VirtualDubMod build 2550/release
    Video
    ID : 0
    Format : MPEG-4 Visual
    Format profile : Advanced [email protected]
    Format settings, BVOP : 1
    Format settings, QPel : No
    Format settings, GMC : No warppoints
    Format settings, Matrix : Custom
    Codec ID : XVID
    Codec ID/Hint : XviD
    Duration : 1h 5mn
    Bit rate : 2 175 Kbps
    Width : 688 pixels
    Height : 528 pixels
    Display aspect ratio : 4:3
    Frame rate : 25.000 fps
    Color space : YUV
    Chroma subsampling : 4:2:0
    Bit depth : 8 bits
    Scan type : Progressive
    Compression mode : Lossy
    Bits/(Pixel*Frame) : 0.240
    Stream size : 1 021 MiB (92%)
    Writing library : XviD 73
    Audio
    ID : 1
    Format : AC-3
    Format/Info : Audio Coding 3
    Mode extension : CM (complete main)
    Format settings, Endianness : Big
    Codec ID : 2000
    Duration : 1h 5mn
    Bit rate mode : Constant
    Bit rate : 192 Kbps
    Channel(s) : 2 channels
    Channel positions : Front: L R
    Sampling rate : 48.0 KHz
    Frame rate : 31.250 fps (1536 spf)
    Compression mode : Lossy
    Stream size : 90.1 MiB (8%)
    Alignment : Split accross interleaves
    Interleave, duration : 40 ms (1.00 video frame)
    Interleave, preload duratio : 500 ms.

    Скриншоты


    Торрент перезалит 11.09.2017 23:19 в связи с заменой рипа.
  • Наше кино > Здравствуй, река! (Павел Арсенов, Юрий Григорьев, Игорь Ясулович) [1978, детский, Screener]
  • 12-Сен-2017 08:48

    Ranku

    Здравствуй, река! Год выпуска: 1978.
    Жанр: детский.
    Продолжительность: 00:59:49.
    Режиссер: Павел Арсенов, Юрий Григорьев, Игорь Ясулович.
    В ролях:
    Костя Жалтов, Татьяна Пельтцер, Валентина Теличкина, Саша Торопов, Катя Сычева, Алеша Запруднов, Аня Турчан.
    Описание:
    Маленький мальчик Стёпка очень любил слушать перед сном сказки, которые сочиняла его мама. И вот однажды она рассказала ему о реке, возле которой они жили. Это была большая и могучая река, но она нуждалась в защите и заботе человека. Утром мама не нашла Стёпку — он ушел искать исток реки. Так начались Степкины приключения…
    Доп. информация:
    Страна: СССР .
    Киностудия: Киностудия им. Горького.
    Авторы сценария: Владимир Трифонов, Дмитрий Иванов.
    Оператор: Александр Масс.
    Композитор: Эдуард Артемьев.
    Художник: Дмитрий Богородский.
    Премьера: апрель 1979 года.

    Релиз
    Большое спасибо NickK88442200 за предоставленый материал для рипа!!!

    Качество: Screener
    Формат: AVI
    Видео: 688x528 (1.30:1), 25 fps, XviD build 73 ~2399 kbps avg, 0.26 bit/pixel
    Аудио: 48 kHz, AC3 Dolby Digital, 2/0 (L,R) ch, ~192 kbps

    Отчет MI

    General
    Complete name : Zdravstvuj.reka.1978.XviD.SCR.fenixclub_1,09.avi
    Format : AVI
    Format/Info : Audio Video Interleave
    File size : 1.09 GiB
    Duration : 59mn 49s
    Overall bit rate : 2 602 Kbps
    Writing application : VirtualDubMod 1.5.10.3 | www.virtualdub-fr.org || (build 2550/release)
    Writing library : VirtualDubMod build 2550/release
    Video
    ID : 0
    Format : MPEG-4 Visual
    Format profile : Advanced [email protected]
    Format settings, BVOP : 1
    Format settings, QPel : No
    Format settings, GMC : No warppoints
    Format settings, Matrix : Custom
    Codec ID : XVID
    Codec ID/Hint : XviD
    Duration : 59mn 49s
    Bit rate : 2 400 Kbps
    Width : 688 pixels
    Height : 528 pixels
    Display aspect ratio : 4:3
    Frame rate : 25.000 fps
    Color space : YUV
    Chroma subsampling : 4:2:0
    Bit depth : 8 bits
    Scan type : Progressive
    Compression mode : Lossy
    Bits/(Pixel*Frame) : 0.264
    Stream size : 1.00 GiB (92%)
    Writing library : XviD 73
    Audio
    ID : 1
    Format : AC-3
    Format/Info : Audio Coding 3
    Mode extension : CM (complete main)
    Format settings, Endianness : Big
    Codec ID : 2000
    Duration : 59mn 49s
    Bit rate mode : Constant
    Bit rate : 192 Kbps
    Channel(s) : 2 channels
    Channel positions : Front: L R
    Sampling rate : 48.0 KHz
    Frame rate : 31.250 fps (1536 spf)
    Compression mode : Lossy
    Stream size : 82.1 MiB (7%)
    Alignment : Split accross interleaves
    Interleave, duration : 40 ms (1.00 video frame)
    Interleave, preload duratio : 500 ms.

    Скриншоты


  • Наше кино > Катала (Сергей Бодров) [1989, мелодрама, криминал, DVDRip]
  • 12-Сен-2017 08:47

    Ranku

    Катала
    Год выпуска: 1989
    Жанр: мелодрама, криминал
    Продолжительность: 01:13:19
    Режиссер: Сергей Бодров
    В ролях: Валерий Гаркалин, Елена Сафонова, Нодар Мгалоблишвили, Виктор Павлов, Луиза Мосендз, Кристина Щербакова, Алекса Папакристу, Сергей Газаров, Лариса Кузнецова, Ренат Давлетьяров
    Описание: В основе остросюжетного фильма - история игрока, внедрившегося в среду профессиональных картежников в надежде сорвать крупный куш...
    Качество: DVDRip
    Формат: AVI
    Видео кодек: DivX
    Аудио кодек: MP3
    Видео: 576x432 (1.33:1), 25 fps, DivX Codec 5.2 ~1199 kbps avg, 0.19 bit/pixel
    Аудио: 48 kHz, MPEG Layer 3, 2 ch, ~128.00 kbps avg
    Скриншоты:

    скрытый текст

  • Наше кино > Ключ (Алексей Коренев) [1980, комедия, мелодрама, молодежный фильм, SATRip-AVC]
  • 01-Сен-2017 23:00

    Ranku

    Ключ (2 серии)
    Жанр: комедия, мелодрама, молодежный фильм
    Год выпуска: 1980
    Продолжительность: 02:14:17
    Режиссёр: Алексей Коренев
    В ролях: Елена Цыплакова, Владимир Изотов, Юрий Шлыков, Пётр Щербаков, Михаил Бычков, Александр Коршунов, Марина Дюжева, Валерий Носик, Георгий Бурков, Татьяна Хорошевцева, Владимир Коровкин, Валентина Талызина
    Описание: Молодоженам-строителям вручают на комсомольской свадьбе ключи от квартиры. Узнав, что дом еще не достроен, молодые решают занять кабинет секретаря комитета комсомола стройки...
    Доп. информация: Исходник: http://rutracker.org/forum/viewtopic.php?t=4026665
    Семпл: http://www.sendspace.com/file/kr7u3e
    Качество видео: SATRip
    Формат видео: MKV
    Видео: 720x528 (4 : 3), 25,000 кадров/сек, AVC ~733 Кбит/сек, ~0.077/pixel
    Аудио: 48.0 kHz, AAC, 2/0 (L,R) ch, ~48 kbps

    MediaInfo

    Ключ (СССР.2 серии.1980) SATrip.mkv
    Формат : Matroska
    Версия формата : Version 4 / Version 2
    Размер файла : 748 Мбайт
    Продолжительность : 2 ч. 14 м.
    Общий поток : 779 Кбит/сек
    Дата кодирования : UTC 2017-08-27 18:10:35
    Программа кодирования : mkvmerge v15.0.0 ('Duel with the Devil') 64-bit
    Библиотека кодирования : libebml v1.3.5 + libmatroska v1.4.5
    Видео
    Идентификатор : 1
    Формат : AVC
    Формат/Информация : Advanced Video Codec
    Профиль формата : [email protected]
    Параметр CABAC формата : Да
    Параметр ReFrames формата : 16 кадров
    Идентификатор кодека : V_MPEG4/ISO/AVC
    Продолжительность : 2 ч. 14 м.
    Битрейт : 733 Кбит/сек
    Ширина : 720 пикселей
    Высота : 528 пикселей
    Соотношение сторон : 4:3
    Режим частоты кадров : Постоянный
    Частота кадров : 25,000 кадров/сек
    Цветовое пространство : YUV
    Субдискретизация насыщенности : 4:2:0
    Битовая глубина : 8 бит
    Тип развёртки : Прогрессивная
    Бит/(Пиксели*Кадры) : 0.077
    Размер потока : 704 Мбайт (94%)
    Библиотека кодирования : x264 core 148 r2744 b97ae06
    Настройки программы : cabac=1 / ref=16 / deblock=1:-3:-3 / analyse=0x3:0x133 / me=umh / subme=10 / psy=1 / psy_rd=1.05:0.10 / mixed_ref=1 / me_range=32 / chroma_me=1 / trellis=2 / 8x8dct=1 / cqm=0 / deadzone=21,11 / fast_pskip=0 / chroma_qp_offset=-3 / threads=12 / lookahead_threads=3 / sliced_threads=0 / nr=0 / decimate=0 / interlaced=0 / bluray_compat=0 / constrained_intra=0 / bframes=14 / b_pyramid=2 / b_adapt=2 / b_bias=0 / direct=3 / weightb=1 / open_gop=0 / weightp=2 / keyint=250 / keyint_min=25 / scenecut=40 / intra_refresh=0 / rc_lookahead=60 / rc=2pass / mbtree=1 / bitrate=733 / ratetol=1.0 / qcomp=0.80 / qpmin=0 / qpmax=69 / qpstep=4 / cplxblur=20.0 / qblur=0.5 / vbv_maxrate=62500 / vbv_bufsize=78125 / nal_hrd=none / filler=0 / ip_ratio=1.40 / aq=1:1.00
    Default : Да
    Forced : Нет
    Аудио
    Идентификатор : 2
    Формат : AAC
    Формат/Информация : Advanced Audio Codec
    Профиль формата : HE-AAC / LC
    Идентификатор кодека : A_AAC
    Продолжительность : 2 ч. 14 м.
    Битрейт : 44,3 Кбит/сек
    Каналы : 2 канала
    Расположение каналов : Front: L R
    Частота : 48,0 КГц / 24,0 КГц
    Частота кадров : 23,438 кадра/сек (1024 spf)
    Метод сжатия : С потерями
    Задержка видео : 203 мс.
    Размер потока : 42,5 Мбайт (6%)
    Язык : Russian
    Default : Да
    Forced : Нет

    Скриншоты

  • Наше кино > Дамы приглашают кавалеров (Иван Киасашвили) [1980, комедия, WEB-DL]
  • 31-Авг-2017 22:52

    Ranku

    Дамы приглашают кавалеров- Жанр: комедия
    Год выпуска: 1980
    Продолжительность: 01:11:58-Режиссёр: Иван Киасашвили-В ролях:
    Марина Неелова, Наталья Андрейченко, Мария Виноградова, Татьяна Божок, Леонид Куравлев, Александр Фатюшин, Николай Караченцов, Валерий Носик, Александр Соловьев, Гия Перадзе, Николай Скоробогатов, Петр Олев, Людмила Иванова, Геннадий Ялович
    Описание:
    Добрая и простодушная продавщица Аня впервые в жизни приезжает на черноморский курорт.
    Всё, о чём она мечтает, - познакомиться с порядочным человеком и выйти за него замуж.-Сэмпл | Кинопоиск-Качество видео: WEB-DL
    Формат видео: MKV
    Видео: MPEG-4 AVC ([email protected]); 1500x1080, Display aspect ratio 1.389:1, 25.000 fps, 4914 Kbps
    Аудио: AAC-LC: 2.0ch 48 Khz; ~160 Kbps VBR

    MediaInfo

    General
    Unique ID : 184869828819754474100354202332878130973 (0x8B14A2482C41E00AA02534882720CF1D)
    Complete name : Дамы приглашают кавалеров.mkv
    Format : Matroska
    Format version : Version 2
    File size : 2.55 GiB
    Duration : 1 h 11 min
    Overall bit rate : 5 074 kb/s
    Encoded date : UTC 2017-08-31 11:31:02
    Writing application : mkvmerge v7.8.0 ('River Man') 32bit built on Mar 27 2015 16:18:02
    Writing library : libebml v1.3.1 + libmatroska v1.4.2
    Video
    ID : 1
    Format : AVC
    Format/Info : Advanced Video Codec
    Format profile : [email protected]
    Format settings, CABAC : Yes
    Format settings, ReFrames : 5 frames
    Codec ID : V_MPEG4/ISO/AVC
    Duration : 1 h 11 min
    Width : 1 500 pixels
    Height : 1 080 pixels
    Display aspect ratio : 1.389
    Frame rate mode : Constant
    Frame rate : 25.000 FPS
    Color space : YUV
    Chroma subsampling : 4:2:0
    Bit depth : 8 bits
    Scan type : Progressive
    Title : Дамы приглашают кавалеров
    Language : Russian
    Default : Yes
    Forced : No
    Color range : Limited
    Color primaries : BT.709
    Transfer characteristics : BT.709
    Matrix coefficients : BT.709
    Audio
    ID : 2
    Format : AAC
    Format/Info : Advanced Audio Codec
    Format profile : LC
    Codec ID : A_AAC
    Duration : 1 h 11 min
    Channel(s) : 2 channels
    Channel positions : Front: L R
    Sampling rate : 48.0 kHz
    Frame rate : 46.875 FPS (1024 spf)
    Compression mode : Lossy
    Title : AAC-LC: 2.0ch 48 Khz; ~160 Kbps VBR
    Language : Russian
    Default : Yes
    Forced : No
    Menu
    00:00:00.000 : ru:Глава 1
    00:05:03.880 : ru:Глава 2
    00:10:12.120 : ru:Глава 3
    00:16:38.760 : ru:Глава 4
    00:21:39.920 : ru:Глава 5
    00:27:42.120 : ru:Глава 6
    00:33:52.760 : ru:Глава 7
    00:39:48.920 : ru:Глава 8
    00:45:08.600 : ru:Глава 9
    00:51:51.720 : ru:Глава 10
    00:58:36.080 : ru:Глава 11
    01:06:02.880 : ru:Глава 12

    Скриншоты

  • Наше кино > Тишины не будет (Борис Кимягаров) [1962, Социальная драма, DVDRip-AVC]
  • 30-Авг-2017 09:40

    Ranku

    Тишины не будет
    Жанр: Социальная драма
    Страна: СССР
    Студия: Таджикфильм
    Год выпуска: 1962
    Продолжительность: 01:22:12
    Режиссёр: Борис Кимягаров
    В ролях:
    Мухаммеджан Касымов … Мухаммеджан Курбанов
    Хамза Умаров … Карим Курбанов, агроном
    Сайрам Исаева … Лютфия
    М.Назаров … Зафар Курбанов
    Дилором Джурбаева-Сосновская … Гульшан
    Хабибулло Абдуразаков … Юсупов, парторг
    К.Назиров … Пулат
    Наталья Антонова … Елена Цветкова
    Евгений Тетерин … Андрей Ильич Озеров, секретарь парткома
    Шамси Джураев … бригадир колхоза
    Юрий Подсолонко … Алексей Смирнов, энергетик
    Абдульхайр Касымов … Набиджон, чайханщик
    Туфа Фазылова
    Бурхон Раджабов
    С.Власенко
    Описание: О взаимоотношениях в семье председателя таджикского колхоза Мухаммеджана Курбанова: сыновья Зафар и Карим стоят на разных жизненных позициях…
    Дополнительная информация: Релиз:
    Автор рипа: pmv
    Большое спасибо за:
    - исходный DVD5 и разрешение на раздачу - Доброму человеку
    * Представленный в раздаче фильм из собрания ГФФ, выпущен в подарочном исполнении и является раритетом.
    * Фильм раздаётся исключительно в ознакомительных целях и коммерческому распространению не подлежит. Поэтому ПРОСЬБА к скачавшим фильм НЕ РАЗДАВАТЬ данный рип на каких-либо сторонних ресурсах.
    Кинопоиск = - (1) - http://www.kinopoisk.ru/film/tishiny-ne-budet-1962-596194/
    Кинотеатр = http://www.kino-teatr.ru/kino/movie/sov/9830/annot/
    ВНИМАНИЕ!!! РИП ФОРМАТА mkv (кодек H.264) ВОСПРОИЗВОДИТСЯ НЕ НА ВСЕХ БЫТОВЫХ ВИДЕОПЛЕЕРАХ!!!
    ПРОСЬБА к СКАЧАВШИМ. НЕ УХОДИТЕ С РАЗДАЧИ, ПОМОГИТЕ ДРУГИМ СКАЧАТЬ!!!
    Качество видео: DVDRip-AVC
    Формат видео: MKV
    Видео: AVC (H264), [email protected] (4:3), 25 fps, 1700 kbps, 0.231 Bits/Pixel
    Аудио: AC3, 48 KHz, stereo (2 ch), 192 kbps

    MediaInfo

    General
    Unique ID : 248023568801137285582882033411713165210 (0xBA979A100280BE6685C17D4F6FA8679A)
    Complete name : D:\torrents\Тишины не будет (1962).mkv
    Format : Matroska
    Format version : Version 4 / Version 2
    File size : 1.36 GiB
    Duration : 1 h 22 min
    Overall bit rate : 2 362 kb/s
    Encoded date : UTC 2017-08-24 21:32:24
    Writing application : mkvmerge v15.0.0 ('Duel with the Devil') 64-bit
    Writing library : libebml v1.3.5 + libmatroska v1.4.5
    Video
    ID : 1
    Format : AVC
    Format/Info : Advanced Video Codec
    Format profile : [email protected]
    Format settings, CABAC : Yes
    Format settings, ReFrames : 16 frames
    Codec ID : V_MPEG4/ISO/AVC
    Duration : 1 h 22 min
    Bit rate : 2 170 kb/s
    Width : 704 pixels
    Height : 576 pixels
    Display aspect ratio : 4:3
    Original display aspect ratio : 1.222
    Frame rate mode : Constant
    Frame rate : 25.000 FPS
    Standard : PAL
    Color space : YUV
    Chroma subsampling : 4:2:0
    Bit depth : 8 bits
    Scan type : Progressive
    Bits/(Pixel*Frame) : 0.214
    Stream size : 1.25 GiB (92%)
    Writing library : x264 core 146 r2538 121396c
    Encoding settings : cabac=1 / ref=16 / deblock=1:0:0 / analyse=0x3:0x133 / me=umh / subme=10 / psy=1 / psy_rd=1.00:0.00 / mixed_ref=1 / me_range=24 / chroma_me=1 / trellis=2 / 8x8dct=1 / cqm=0 / deadzone=21,11 / fast_pskip=1 / chroma_qp_offset=-2 / threads=48 / lookahead_threads=4 / sliced_threads=0 / nr=0 / decimate=1 / interlaced=0 / bluray_compat=0 / constrained_intra=0 / bframes=8 / b_pyramid=2 / b_adapt=2 / b_bias=0 / direct=3 / weightb=1 / open_gop=0 / weightp=2 / keyint=250 / keyint_min=25 / scenecut=40 / intra_refresh=0 / rc_lookahead=60 / rc=2pass / mbtree=1 / bitrate=2170 / ratetol=1.0 / qcomp=0.60 / qpmin=0 / qpmax=69 / qpstep=4 / cplxblur=20.0 / qblur=0.5 / ip_ratio=1.40 / aq=1:1.00
    Language : Russian
    Default : Yes
    Forced : No
    Audio
    ID : 2
    Format : AC-3
    Format/Info : Audio Coding 3
    Mode extension : CM (complete main)
    Format settings, Endianness : Big
    Codec ID : A_AC3
    Duration : 1 h 21 min
    Bit rate mode : Constant
    Bit rate : 192 kb/s
    Channel(s) : 2 channels
    Channel positions : Front: L R
    Sampling rate : 48.0 kHz
    Frame rate : 31.250 FPS (1536 spf)
    Bit depth : 16 bits
    Compression mode : Lossy
    Stream size : 112 MiB (8%)
    Language : Russian
    Default : Yes
    Forced : No
    МОИ РАЗДАЧИ НА РУТРЕКЕРЕ: http://rutracker.org/forum/tracker.php?rid=27390064
  • Наше кино > Женщина издалека (Тахир Сабиров) [1978, Военный, драма, DVDRip]
  • 30-Авг-2017 09:40

    Ranku

    Женщина издалека
    Жанр: Военный, драма
    Страна: СССР
    Студия: Таджикфильм
    Год выпуска: 1978
    Продолжительность: 01:12:37
    Режиссёр: Тахир Сабиров
    В ролях:
    Ирина Калиновская … Дарья
    Хашим Гадоев … Саша Расулов
    Ситора Алиева … Лейла, дочь Дарьи и Саши
    Олег Вершковский
    Соджида Гулямова
    Юрий Дедович … главврач
    Ирина Егорова
    Александр Фатюшин … танкист, лейтенант
    Владимир Плотников … солдат с махоркой
    Камол Саидмурадов … Джавлон
    Савринисо Сабзалиева … С.Сабзалиева
    Нина Тер-Осипян
    Зоя Толбузина … пасажирка поезда
    Дильбар Умарова … Заханчирова
    Е.Филатов
    Юнус Юсупов … Нозим
    Описание: Молодая украинка Дарья выходит замуж за солдата-таджика Расулова и уезжает в его аул. У них рождается дочь, а вскоре начинается Великая Отечественная война. Муж ранен на фронте и теряет зрение. Долгая борьба Дарьи за возвращение Расулова к жизни приносит плоды - он начинает видеть...
    Дополнительная информация: Релиз:
    Автор рипа: pmv
    Большое спасибо за:
    - исходный DVD5 и разрешение на раздачу - Доброму человеку
    * Представленный в раздаче фильм из собрания ГФФ, выпущен в подарочном исполнении и является раритетом.
    * Фильм раздаётся исключительно в ознакомительных целях и коммерческому распространению не подлежит.
    Поэтому ПРОСЬБА к скачавшим фильм НЕ РАЗДАВАТЬ данный рип на каких-либо сторонних ресурсах.

    Кинопоиск = - (4) - http://www.kinopoisk.ru/film/zhenshhina-izdaleka-1978-596030/
    Кинотеатр = http://www.kino-teatr.ru/kino/movie/sov/10138/annot/
    ПРОСЬБА к СКАЧАВШИМ. НЕ УХОДИТЕ С РАЗДАЧИ, ПОМОГИТЕ ДРУГИМ СКАЧАТЬ!!!
    Качество видео: DVDRip
    Формат видео: AVI
    Видео: 704x336 (2.10:1), 25 fps, XviD build 73 ~1203 kbps avg, 0.20 bit/pixel
    Аудио: AC3, 48 KHz, stereo (2 ch), 192 kbps

    MediaInfo

    General
    Complete name : D:\torrents\Женщина издалека (1978).avi
    Format : AVI
    Format/Info : Audio Video Interleave
    File size : 730 MiB
    Duration : 1 h 12 min
    Overall bit rate : 1 405 kb/s
    Writing application : VirtualDubMod 1.5.10.3 | www.virtualdub-fr.org || (build 2550/release)
    Writing library : VirtualDub build 35576/release
    Video
    ID : 0
    Format : MPEG-4 Visual
    Format profile : Advanced [email protected]
    Format settings, BVOP : 2
    Format settings, QPel : No
    Format settings, GMC : No warppoints
    Format settings, Matrix : Default (H.263)
    Codec ID : XVID
    Codec ID/Hint : XviD
    Duration : 1 h 12 min
    Bit rate : 1 203 kb/s
    Width : 704 pixels
    Height : 336 pixels
    Display aspect ratio : 2.095
    Frame rate : 25.000 FPS
    Color space : YUV
    Chroma subsampling : 4:2:0
    Bit depth : 8 bits
    Scan type : Progressive
    Compression mode : Lossy
    Bits/(Pixel*Frame) : 0.203
    Stream size : 625 MiB (86%)
    Writing library : XviD 73
    Audio
    ID : 1
    Format : AC-3
    Format/Info : Audio Coding 3
    Mode extension : CM (complete main)
    Format settings, Endianness : Big
    Codec ID : 2000
    Duration : 1 h 12 min
    Bit rate mode : Constant
    Bit rate : 192 kb/s
    Channel(s) : 2 channels
    Channel positions : Front: L R
    Sampling rate : 48.0 kHz
    Frame rate : 31.250 FPS (1536 spf)
    Bit depth : 16 bits
    Compression mode : Lossy
    Stream size : 99.7 MiB (14%)
    Alignment : Aligned on interleaves
    Interleave, duration : 40 ms (1.00 video frame)
    Interleave, preload duration : 512 ms
    МОИ РАЗДАЧИ НА РУТРЕКЕРЕ: http://rutracker.org/forum/tracker.php?rid=27390064
  • Наше кино > Почти ровесники (Татьяна Пименова) [1984, мелодрама, семейное кино, DVB]
  • 30-Авг-2017 09:16

    Ranku

    Почти ровесники
    29.08.17 торрент файл обновлен, в связи с повторной трансляцией заменена звуковая дорожка
    Жанр: мелодрама, семейное кино
    Год выпуска: 1984
    Продолжительность: 01:09:58
    Режиссёр: Татьяна Пименова
    В ролях: Михаил Морозов, Елена Новосельская, Юра Жуков, Ваня Именитов, Василий Чернышев, Даша Гальчук, Ольга Дольникова, Люба Виноградова, Владимир Петров, Вероника (Ника) Косенкова, Анна Исайкина, Нелли Витепаш, Любовь Германова, Валентина Клягина, Людмила Дмитриева, Ирина Калиновская, Георгий Склянский, В. Калиновский, Анатолий Борисов, Вадим Элик, Алексей Ясулович, Л. Болховитинов, Ж. Гурьянова, О. Масалова, Геннадий Богданов, Леонид Громов, Олег Фомин
    Описание: Выпускник педагогического института — учитель литературы Вячеслав Кузьмин — становится классным руководителем и лучшим другом ребят десятого, выпускного, класса...
    Доп. информация: Запись потока *.ts со спутника HOT BIRD, удаление рекламы программой VideoReDo. Постеры из коллекции советских киноплакатов коллеги tokarevamarina.
    Качество видео: DVB
    Формат видео: MPEG-TS
    Видео: MPEG Video, 704(768)x576 (4:3), 25,000 кадров/сек, 2299 Кбит/сек
    Аудио: MPEG Audio, 48,0 КГц, 192 Кбит/сек, 2 канала

    MediaInfo

    Общее
    Идентификатор : 1 (0x1)
    Полное имя : D:\MPG\ПОЧТИ РОВЕСНИКИ (Nashe Kino).ts
    Формат : MPEG-TS
    Размер файла : 1,29 Гбайт
    Продолжительность : 1 ч. 10 м.
    Режим общего битрейта : Переменный
    Общий поток : 2623 Кбит/сек
    Максимальный общий битрейт : 35,5 Мбит/сек
    Видео
    Идентификатор : 4113 (0x1011)
    Идентификатор меню : 1 (0x1)
    Формат : MPEG Video
    Версия формата : Version 2
    Профиль формата : [email protected]
    Параметр BVOP формата : Да
    Параметр матрицы формата : Выборочная
    Параметр GOP формата : Variable
    Структура изображения : Frame
    Идентификатор кодека : 2
    Продолжительность : 1 ч. 9 м.
    Вид битрейта : Переменный
    Битрейт : 2299 Кбит/сек
    Максимальный битрейт : 15,0 Мбит/сек
    Ширина : 704 пикселя
    Высота : 576 пикселей
    Соотношение сторон : 4:3
    Частота кадров : 25,000 кадров/сек
    Стандарт вещания : PAL
    Цветовое пространство : YUV
    Субдискретизация насыщенности : 4:2:0
    Битовая глубина : 8 бит
    Тип развёртки : Чересстрочная
    Порядок развёртки : Верхнее поле первое
    Метод сжатия : С потерями
    Бит/(Пиксели*Кадры) : 0.227
    Временной код первого кадра : 00:00:00:00
    Оригинал временного кода : Group of pictures header
    GOP, открыто/закрыто : Открыто
    GOP, открыто/закрыто на первом кадре : Закрыто
    Размер потока : 1,12 Гбайт (87%)
    Аудио
    Идентификатор : 4352 (0x1100)
    Идентификатор меню : 1 (0x1)
    Формат : MPEG Audio
    Версия формата : Version 1
    Профиль формата : Layer 2
    Идентификатор кодека : 4
    Продолжительность : 1 ч. 10 м.
    Вид битрейта : Постоянный
    Битрейт : 192 Кбит/сек
    Каналы : 2 канала
    Частота : 48,0 КГц
    Метод сжатия : С потерями
    Размер потока : 96,5 Мбайт (7%)
    Язык : Russian

    Ещё постер

  • Наше кино > Там, где цветут эдельвейсы (Шарип Бейсембаев, Ефим Арон) [1965, приключения, DVB]
  • 25-Авг-2017 23:00

    Ranku

    Там, где цветут эдельвейсы Жанр: приключения
    Студия: Казахфильм
    Продолжительность: 01:19:25
    Год выпуска: 1965-Режиссёры: Шарип Бейсембаев, Ефим Арон
    В ролях: Валерий Косенков, Лилия Шарапова, Капан Бадыров, Л. Калюжская, Валерий Носик, Елеубай Умурзаков, Любовь Калюжная, Иван Косых, Галина Чигинская.-Описание: Высоко в горах, на пограничной заставе растут эдельвейсы. Однажды цветок стал причиной ложной тревоги — испытанием, которое выдержал сержант Сундетбаев и вся застава. Но тревоги бывали не всегда ложными…-Доп. информация: Новая редакция, 1988 г.-
    Семпл: http://sendfile.su/1357329-Качество: DVB [Ел Арна]
    Формат: TS
    Видео: AVC, 720x576 (16:9) @ 1047x576, 25 fps, ~2096 kbps, 0.202 bit/pixel
    Аудио: [RUS] MP2, 48 kHz, 2 ch, 192 kbps

    Mediainfo

    Общее
    Идентификатор : 1 (0x1)
    Полное имя : F:\Там, где цветут эдельвейсы (1965).ts
    Формат : MPEG-TS
    Размер файла : 1,34 Гбайт
    Продолжительность : 1 ч. 19 м.
    Режим общего битрейта : Переменный
    Общий поток : 2409 Кбит/сек
    Видео
    Идентификатор : 68 (0x44)
    Идентификатор меню : 1 (0x1)
    Формат : AVC
    Формат/Информация : Advanced Video Codec
    Профиль формата : [email protected]
    Параметр CABAC формата : Да
    Параметр ReFrames формата : 3 кадра
    Идентификатор кодека : 27
    Продолжительность : 1 ч. 19 м.
    Битрейт : 2096 Кбит/сек
    Ширина : 720 пикселей
    Высота : 576 пикселей
    Соотношение сторон : 16:9
    Частота кадров : 25,000 кадров/сек
    Стандарт вещания : Component
    Цветовое пространство : YUV
    Субдискретизация насыщенности : 4:2:0
    Битовая глубина : 8 бит
    Тип развёртки : Чересстрочная
    Метод сохранения типа развёртки : Раздельные поля
    Порядок развёртки : Верхнее поле первое
    Бит/(Пиксели*Кадры) : 0.202
    Размер потока : 1,16 Гбайт (87%)
    Цветовой диапазон : Limited
    Основные цвета : BT.601 PAL
    Характеристики трансфера : BT.470 System B, BT.470 System G
    Коэффициенты матрицы : BT.601
    Аудио
    Идентификатор : 69 (0x45)
    Идентификатор меню : 1 (0x1)
    Формат : MPEG Audio
    Версия формата : Version 1
    Профиль формата : Layer 2
    Идентификатор кодека : 3
    Продолжительность : 1 ч. 19 м.
    Вид битрейта : Постоянный
    Битрейт : 192 Кбит/сек
    Каналы : 2 канала
    Частота : 48,0 КГц
    Метод сжатия : С потерями
    Размер потока : 109 Мбайт (8%)
    Язык : English

    Скриншоты

  • Наше кино > Кровь и пот (Азербайжан Мамбетов, Юрий Мастюгин) [1978, драма, история, DVB]
  • 25-Авг-2017 23:00

    Ranku

    Кровь и пот Жанр: драма, история
    Студия: Казахфильм
    Продолжительность: 02:08:47
    Год выпуска: 1978-Режиссёры: Азербайжан Мамбетов, Юрий Мастюгин
    В ролях: Анвар Молдабеков, Тунгышбай Жаманкулов, Гульмыра Шайбекова, Идрис Ногайбаев, Евгений Евстигнеев, Юрий Вотяков, Лола Абдулкаримова, .-Описание: Киноэпопея о классовой борьбе в небольшом рыбацком ауле на берегу Аральского моря, о революционных событиях, всколыхнувших степной край. Гражданская война в степях Приаралья — вот конкретный исторический фон, на котором разворачивается жизнь героев — аральских рыбаков и кочевников-скотоводов. Три драматические судьбы, три характера в центре повествования: бедный батрак Еламан, ставший вожаком пробужденных революцией масс, бай Таниберген, хозяин степи, и прекрасная Акбала. Их взаимоотношения — это не банальный «любовный треугольник», это драма, отразившая сложность процессов, происходивших в предреволюционный период и в годы революции.-
    Семпл: http://www.sendspace.com/file/oibl7r-Качество: DVB [Ел Арна]
    Формат: TS
    Видео: AVC, 720x576 (16:9) @ 1047x576, 25 fps, ~2098 kbps, 0.202 bit/pixel
    Аудио: [RUS] MP2, 48 kHz, 2 ch, 192 kbps

    Mediainfo

    Общее
    Идентификатор : 1 (0x1)
    Полное имя : F:\Кровь и пот (1978).ts
    Формат : MPEG-TS
    Размер файла : 2,17 Гбайт
    Продолжительность : 2 ч. 8 м.
    Режим общего битрейта : Переменный
    Общий поток : 2411 Кбит/сек
    Видео
    Идентификатор : 67 (0x43)
    Идентификатор меню : 1 (0x1)
    Формат : AVC
    Формат/Информация : Advanced Video Codec
    Профиль формата : [email protected]
    Параметр CABAC формата : Да
    Параметр ReFrames формата : 3 кадра
    Идентификатор кодека : 27
    Продолжительность : 2 ч. 8 м.
    Битрейт : 2098 Кбит/сек
    Ширина : 720 пикселей
    Высота : 576 пикселей
    Соотношение сторон : 16:9
    Частота кадров : 25,000 кадров/сек
    Стандарт вещания : Component
    Цветовое пространство : YUV
    Субдискретизация насыщенности : 4:2:0
    Битовая глубина : 8 бит
    Тип развёртки : Чересстрочная
    Метод сохранения типа развёртки : Раздельные поля
    Порядок развёртки : Верхнее поле первое
    Бит/(Пиксели*Кадры) : 0.202
    Размер потока : 1,89 Гбайт (87%)
    Цветовой диапазон : Limited
    Основные цвета : BT.601 PAL
    Характеристики трансфера : BT.470 System B, BT.470 System G
    Коэффициенты матрицы : BT.601
    Аудио
    Идентификатор : 68 (0x44)
    Идентификатор меню : 1 (0x1)
    Формат : MPEG Audio
    Версия формата : Version 1
    Профиль формата : Layer 2
    Идентификатор кодека : 3
    Продолжительность : 2 ч. 8 м.
    Вид битрейта : Постоянный
    Битрейт : 192 Кбит/сек
    Каналы : 2 канала
    Частота : 48,0 КГц
    Метод сжатия : С потерями
    Задержка видео : -120 мс.
    Размер потока : 177 Мбайт (8%)
    Язык : English

    Скриншоты

Sitemap